Other

Ninja assasin dvdrip xvid(2009) [english]

  • Download 5x Faster
  • Download torrent
  • Direct Download
  • Rate this torrent +  |  -
Ninja assasin dvdrip xvid(2009) [english]

Anonymous and Free Direct Download 300GB+


Torrent info

Name:Ninja assasin dvdrip xvid(2009) [english]

Total Size: 656.18 MB

Magnet: Magnet Link

Seeds: 0

Leechers: 0

Stream: Watch Online @ Movie4u

Last Updated: 2010-12-19 02:51:31 (Update Now)

Torrent added: 2009-12-21 15:16:31



VPN For Torrents

Torrent Files List


 

Announce URL: http://tracker.publicbt.com/announce

Torrent description

Video Codec.......: XVID
Audio Codec.......:MP3
Audio Bitrate.....:128
Subtitles.........:NIL
Resolution...... 640 x 304
Release Date......:11/12/09
Theatre Date......:25/11/09
Runtime.......:1h 30mn
Language..........:ENGLISH
IMDb URL..........:http://www.imdb.com/title/tt1186367/


DETAILS:

Video
ID : 0
Format : MPEG-4 Visual
Format profile : Advanced [email protected]
Format settings, BVOP : Yes
Format settings, QPel : No
Format settings, GMC : No warppoints
Format settings, Matrix : Default (MPEG)
Muxing mode : Packed bitstream
Codec ID : XVID
Codec ID/Hint : XviD
Duration : 1h 30mn
Bit rate : 956 Kbps
Width : 640 pixels
Height : 304 pixels
Display aspect ratio : 2.2
Frame rate : 23.976 fps
Resolution : 24 bits
Colorimetry : 4:2:0
Scan type : Progressive
Bits/(Pixel*Frame) : 0.205
Stream size : 618 MiB (90%)
Writing library : XviD 1.2.1 (UTC 2008-12-04)

Audio
ID : 1
Format : MPEG Audio
Format version : Version 2
Format profile : Layer 3
Codec ID : 55
Codec ID/Hint : MP3
Duration : 1h 30mn
Bit rate mode : Constant
Bit rate : 96.0 Kbps
Channel(s) : 2 channels
Sampling rate : 22.05 KHz
Resolution : 16 bits
Video delay : 3s 882ms
Stream size : 62.1 MiB (9%)
Alignment : Split accross interleaves
Interleave, duration : 42 ms (1.00 video frame)
Interleave, preload duration : 500 ms

Plot: "When several people are killed in a peculiar manner, a Europol agent suspects that it could be the work of Ninja assassins. Her superiors warn her that she's entering dangerous territory. But she investigates nonetheless and it leads her to another dead agent who was also investigating the same thing. When she is marked for death, she is saved by another Ninja, whom she learns has gone renegade."

related torrents

Torrent name

health leech seeds Size
 


comments (0)

Main Menu