Horror

Dance Of The Dead (2008) DvdRip Xvid {1337x} Noir

  • Download 5x Faster
  • Download torrent
  • Direct Download
  • Rate this torrent +  |  -

Torrent info

Name:Dance Of The Dead (2008) DvdRip Xvid {1337x} Noir

Total Size: 710.88 MB

Magnet: Magnet Link

Seeds: 2

Leechers: 4

Stream: Watch Full Movie @ Movie4u

Last Updated: 2010-09-22 11:05:50 (Update Now)

Torrent added: 2008-10-09 20:35:27



VPN For Torrents

Torrent Files List


1337x.Org.txt (Size: 710.88 MB) (Files: 5)

 1337x.Org.txt

0.03 KB

 Dance Of The Dead (2008) [DvdRip] [Xvid] {1337x}-Noir.avi

703.33 MB

 Noir.nfo

5.07 KB

 Subtitles

  Dance Of The Dead (2008) [DvdRip] [Xvid] {1337x}-Noir.idx

99.01 KB

  Dance Of The Dead (2008) [DvdRip] [Xvid] {1337x}-Noir.sub

7.45 MB
 

Announce URL: http://genesis.1337x.org:1337/announce

Torrent description

Screenshots

Dance Of The Dead (2008) DvdRip Xvid {1337x} Noir preview 0

Dance Of The Dead (2008) DvdRip Xvid {1337x} Noir preview 1

Dance Of The Dead (2008) DvdRip Xvid {1337x} Noir preview 2

Dance Of The Dead (2008) DvdRip Xvid {1337x} Noir preview 3
[code]

??????
??????? ????
???????? ??????
????????? ???????????
??????? ???????????? ?????????????
????????? ???????????????????????????
?????????? ???????????????????????????
??????????? ?????????????????????????????
?????????????????????????????????????????
?????????????????????????????????????????
?????????????????????????????????????????
?????????????????????????????????????????
?????????????????????????????????????????
???????? ?????????????????????????????????
????????? ????????????????????????????
????????? ????????????????? ????????
????????? ???????????????? ????????
????????? ?????????????? ????????
????????? ?????




**************************
* Dance Of The Dead 2008 *
**************************

________________________
General Information |
________________________|
_______________________________________________________________
Type : Movie
Format : AVI
Format/Info : Audio Video Interleave
File size : 703Mb
Duration : 1h 27mn
Language : English
Source : Dvd NTSC
Subtitles : English,Spanish
Genre : Adventure | Horror
IMDB Link : http://www.imdb.com/title/tt0926063/
Rating : 7.0/10
_______________________________________________________________
________________________________________________________________
Video
Format : MPEG-4 Visual
Format profile : Streaming [email protected]
Format settings, BVOP : Yes
Format settings, QPel : No
Format settings, GMC : No warppoints
Format settings, Matrix : Default
Muxing mode : Packed bitstream
Codec ID : XVID
Codec ID/Hint : XviD
Duration : 1h 27mn
Bit rate : 991 Kbps
Width : 608 pixels
Height : 336 pixels
Display aspect ratio : 16/9
Frame rate : 23.976 fps
Resolution : 24 bits
Colorimetry : 4:2:0
Scan type : Progressive
Bits/(Pixel*Frame) : 0.202
Stream size : 618 MiB (88%)
_______________________________________________________________
Audio
Format : MPEG Audio
Format version : Version 1
Format profile : Layer 3
Codec ID : 55
Codec ID/Hint : MP3
Duration : 1h 27mn
Bit rate mode : Constant
Bit rate : 128 Kbps
Channel(s) : 2 channels
Sampling rate : 48.0 KHz
Resolution : 16 bits
Stream size : 79.8 MiB (11%)
Alignment : Aligned on interleaves
Interleave, duration : 42 ms (1.00 video frame)
Interleave, preload duration : 504 ms
_______________________________________________________________
________________
Description
________________
_______________________________________________________________
On the night of the big High-School Prom, the dead rise to eat
the living, and the only people who can stop them are the
losers who couldn't get dates to the dance.
_______________________________________________________________

___________________
Notes
___________________
_______________________________________________________________
Be aware People are starting to use my tag to create fake files
Make sure its a real genuine release from me, I have never and
will never do Cams,Telesyncs,Telecine or RAR files.Try to check
1337x.org to see if the file exist.

f*@&% the fakers and enjoy my release.
_______________________________________________________________
___________________
Post Information
___________________
_________________________________
Posted by............: Noir
Posted on............: 10/09/2008
_________________________________[/code]

Dance Of The Dead (2008) DvdRip Xvid {1337x} Noir preview 4

Dance Of The Dead (2008) DvdRip Xvid {1337x} Noir preview 5

related torrents

Torrent name

health leech seeds Size
 


comments (0)

Main Menu

 

script data-cfasync="false" src="//d2ghscazvn398x.cloudfront.net/?cshgd=690275">