Other

Avatar 2009 Proper Ts xvid Hq (btarena org)

  • Download 5x Faster
  • Download torrent
  • Direct Download
  • Rate this torrent +  |  -
Avatar 2009 Proper Ts xvid Hq (btarena org)

Anonymous and Free Direct Download 300GB+


Torrent info

Name:Avatar 2009 Proper Ts xvid Hq (btarena org)

Total Size: 1.57 GB

Magnet: Magnet Link

Seeds: 0

Leechers: 0

Stream: Watch Online @ Movie4u

Last Updated: 2015-09-06 07:57:13 (Update Now)

Torrent added: 2010-01-28 12:20:09



VPN For Torrents

Torrent Files List


 

tracker

leech seeds
 

Torrent description

Avatar (2009) TS XviD (Proper) Final Version unrar

Format : AVI
Format/Info : Audio Video Interleave
Format profile : OpenDML
File size : 1.77 GB
Duration : 2h 33mn
Overall bit rate : 1 268 Kbps
Writing application : VirtualDubMod 1.5.10.2 (build 2542/release)
Writing library : VirtualDubMod build 2542/release
Original source form : MAX TORRENTZ
Copyright : SIGISMUNT

Video
ID : 0
Format : MPEG-4 Visual
Format profile : AdvancedSimple[@]L5
Format settings, BVOP : Yes
Format settings, QPel : No
Format settings, GMC : No warppoints
Format settings, Matrix : Default (H.263)
Muxing mode : Packed bitstream
Codec ID : XVID
Codec ID/Hint : XviD
Duration : 2h 33mn
Bit rate : 1 121 Kbps
Width : 640 pixels
Height : 272 pixels
Display aspect ratio : 2.35:1
Frame rate : 25.000 fps
Resolution : 24 bits
Colorimetry : 4:2:0
Scan type : Progressive
Bits/(Pixel*Frame) : 0.258
Stream size : 1.20 GiB (88%)
Writing library : XviD 1.2.1 (UTC 2008-12-04)

Audio
ID : 1
Format : MPEG Audio
Format version : Version 1
Format profile : Layer 3
Codec ID : 55
Codec ID/Hint : MP3
Duration : 2h 33mn
Bit rate mode : Variable
Bit rate : 137 Kbps
Nominal bit rate : 144 Kbps
Channel(s) : 2 channels
Sampling rate : 48.0 KHz
Resolution : 16 bits
Stream size : 151 MiB (11%)
Alignment : Aligned on interleaves
Interleave, duration : 24 ms (0.60 video frame)
Interleave, preload duration : 212 ms
Title : symc2_1
Writing library : LAME3.90.
Encoding settings : -m j -V 4 -q 2 -lowpass 18 --abr 144

" border="0" alt="Avatar 2009 Proper Ts xvid Hq (btarena org) preview 0"/>" rel="nofollow">
Avatar 2009 Proper Ts xvid Hq (btarena org) preview 1" border="0" alt="Avatar 2009 Proper Ts xvid Hq (btarena org) preview 0"/>

related torrents

Torrent name

health leech seeds Size
 


comments (0)

Main Menu