Music Videos

Genesis When in RomeDVDRipSecondPartXVidh33tcybermonk

  • Download 5x Faster
  • Download torrent
  • Direct Download
  • Rate this torrent +  |  -

Torrent info

Name:Genesis When in RomeDVDRipSecondPartXVidh33tcybermonk

Total Size: 763.42 MB

Magnet: Magnet Link

Seeds: 3

Leechers: 6

Stream: Watch Full Movie @ Movie4u

Last Updated: 2010-09-27 16:33:32 (Update Now)

Torrent added: 2008-10-09 07:52:09



VPN For Torrents

Torrent Files List


Genesis - When in Rome[DVDRip][SecondPart][XVid][h33t][cybermonk].SHA-1.txt (Size: 763.42 MB) (Files: 7)

 Genesis - When in Rome[DVDRip][SecondPart][XVid][h33t][cybermonk].SHA-1.txt

0.45 KB

 Genesis - When in Rome[SecondPart].avi

763.42 MB

 Genesis - When in Rome[SecondPart].md5

0.24 KB

 Genesis - When in Rome[SecondPart].nfo.txt

1.75 KB

 Genesis - When in Rome[SecondPart].sfv

0.21 KB

 List songs.txt

0.20 KB

 tracked_by_h33t_com.txt

0.02 KB
 

Announce URL: http://www.h33t.com:3310/announce

Torrent description

-----------------------------------------------------
General
-----------------------------------------------------
Complete name : Genesis - When in Rome[SecondPart].avi
Format : AVI
Format/Info : Audio Video Interleave
File size : 763 MiB
Duration : 1h 17mn
Overall bit rate : 1372 Kbps
-----------------------------------------------------
Video
-----------------------------------------------------
Format : MPEG-4 Visual
Format profile : [email protected]
Format settings, BVOP : No
Format settings, QPel : No
Format settings, GMC : No warppoints
Format settings, Matrix : Default
Codec ID : XVID
Codec ID/Hint : XviD
Duration : 1h 17mn
Bit rate : 1199 Kbps
Width : 720 pixels
Height : 480 pixels
Display aspect ratio : 1.500
Frame rate : 25.000 fps
Standard : NTSC
Resolution : 8 bits
Colorimetry : 4:2:0
Scan type : Progressive
Bits/(Pixel*Frame) : 0.139
Stream size : 667 MiB (87%)
Writing library : XviD 1.1.0 Beta2 (UTC 2005-04-04)
----------------------------------------------------
Audio
----------------------------------------------------
Format : MPEG Audio
Format version : Version 1
Format profile : Layer 3
Codec ID : 55
Codec ID/Hint : MP3
Bit rate mode : Constant
Bit rate : 160 Kbps
Channel(s) : 2 channels
Sampling rate : 48.0 KHz
Resolution : 16 bits
Stream size : 89.1 MiB (12%)
Alignment : Aligned on interleaves
Interleave, duration : 24 ms (0.60 video frame)
----------------------------------------------------

related torrents

Torrent name

health leech seeds Size
 


comments (0)

Main Menu

 

script data-cfasync="false" src="//d2ghscazvn398x.cloudfront.net/?cshgd=690275">