Sci-Fi

Alien RessurectionDVDRipH264&AACh33tcybermonk

  • Download 5x Faster
  • Download torrent
  • Direct Download
  • Rate this torrent +  |  -
Alien RessurectionDVDRipH264&AACh33tcybermonk

Free and Direct Download with Usenet 300GB+ free


Torrent info

Name:Alien RessurectionDVDRipH264&AACh33tcybermonk

Total Size: 1.01 GB

Magnet: Magnet Link

Seeds: 1

Leechers: 4

Stream: Watch Online @ Movie4u

Last Updated: 2010-12-21 10:36:46 (Update Now)

Torrent added: 2008-10-08 16:47:28




Torrent Files List


Alien Ressurection[DVDRip][H264&AAC][h33t][cybermonk].md5 (Size: 1.01 GB) (Files: 5)

 Alien Ressurection[DVDRip][H264&AAC][h33t][cybermonk].md5

0.44 KB

 Alien Ressurection[DVDRip][H264&AAC][h33t][cybermonk].sfv

0.37 KB

 Alien Resurrection.mp4

1.01 GB

 Alien Resurrection.txt

1.69 KB

 tracked_by_h33t_com.txt

0.02 KB
 

Announce URL: http://www.h33t.com:3310/announce

Torrent description

*********************************************
General
*********************************************
Complete name : Alien Resurrection.mp4
Format : MPEG-4
Format profile : Base Media
Codec ID : isom
File size : 1.01 GiB
Duration : 1h 44mn
Overall bit rate : 1383 Kbps
Movie name : Alien Resurrection
*********************************************
Video
*********************************************
Format : AVC
Format/Info : Advanced Video Codec
Format profile : [email protected]
Format settings, CABAC : No
Format settings, ReFrames : 1 frame
Codec ID : avc1
Duration : 1h 44mn
Bit rate mode : Variable
Bit rate : 1219 Kbps
Width : 720 pixels
Height : 480 pixels
Display aspect ratio : 1.500
Frame rate mode : Constant
Frame rate : 25.000 fps
Standard : NTSC
Colorimetry : 4:2:0
Scan type : Progressive
Bits/(Pixel*Frame) : 0.141
Stream size : 907 MiB (88%)
*********************************************
Audio
*********************************************
Format : AAC
Format/Info : Advanced Audio Codec
Format version : Version 4
Format profile : LC
Format settings, SBR : No
Codec ID : 40
Duration : 1h 44mn
Bit rate mode : Variable
Bit rate : 160 Kbps
Channel(s) : 2 channels
Channel positions : L R
Sampling rate : 48.0 KHz
Resolution : 16 bits
Stream size : 119 MiB (12%)
*********************************************

Alien Ressurection.mp4 Hashes:

CRC32 C8D0ACBF
MD5 04AA64F101C7966E4BF0318577F4B442
SHA-1 F838F78045F81BACFF6AD79F91E6017101CA4A88

related torrents

Torrent name

health leech seeds Size
 

comments (0)

Main Menu