Drama

Mr Jones (1993) Quality DVDrip MULTISUBS

  • Download 5x Faster
  • Download torrent
  • Direct Download
  • Rate this torrent +  |  -
Mr Jones (1993) Quality DVDrip MULTISUBS

Anonymous and Direct Download 300GB+ free


Torrent info

Name:Mr Jones (1993) Quality DVDrip MULTISUBS

Total Size: 701.82 MB

Magnet: Magnet Link

Seeds: 7

Leechers: 26

Stream: Watch Online @ Movie4u

Last Updated: 2010-12-31 18:06:01 (Update Now)

Torrent added: 2008-10-08 13:54:35




Torrent Files List


Info about this release.txt (Size: 701.82 MB) (Files: 11)

 Info about this release.txt

4.65 KB

 Mr Jones (1993) Richard Gere+Lena Olin (DVDrip,MULTISUBS)_Kuth.avi

695.73 MB

 Optional subtitles

  Dansk.rar

779.78 KB

  English.rar

838.78 KB

  Espanol.rar

798.87 KB

  Nederlands.rar

819.54 KB

  Norsk.rar

767.01 KB

  Notes on subtitle files.txt

1.68 KB

  Polski.rar

839.91 KB

  Suomeksi.rar

663.92 KB

  Svenska.rar

726.99 KB
 

Announce URL: http://tpb.tracker.thepiratebay.org/announce

Torrent description

Mr. Jones (1993)
Optional subtitle in idx/sub format:
Danish, Dutch, English, Finnish, Norwegian, Polish, Spanish, Swedish

Fantastic acting by Richard Gere as the manic-depressive (bi-polar) patient seducing his psyciatrist (Swedish-born Lena Olin) who endangers her job. Not as sinister as it sounds; lots of laughs and heartfelt insights: Who is the most "sane"? Gere plays the piano himself, as he did in "Pretty Woman" and other films.

Widescreen 720x384, 2-pass rip, good stereo AC3
Burn tested, runs well in both my standalone DivX players.

MediaInfo analysis:
Format : AVI
Format/Info : Audio Video Interleave
File size : 696 MiB
Duration : 1h 49mn
Overal bit rate : 889 Kbps

Video
Format : MPEG-4 Visual
Format profile : Streaming [email protected]
Format settings, BVOP : Yes
Format settings, QPel : No
Format settings, GMC : No warppoints
Format settings, Matrix : Default
Muxing mode : Packet Bitstream
Codec ID : XVID
Codec ID/Hint : XviD
Duration : 1h 49mn
Bit rate : 751 Kbps
Width : 720 pixels
Height : 384 pixels
Display aspect ratio : 1.875
Frame rate : 25.000 fps
Resolution : 8 bits
Colorimetry : 4:2:0
Scan type : Progressive
Bits/(Pixel*Frame) : 0.109
Stream size : 588 MiB
Writing library : XviD 1.2.0.dev47 (UTC 2006-11-01)

Audio
Format : MPEG Audio
Format version : Version 1
Format profile : Layer 3
Codec ID : 55
Codec ID/Hint : MP3
Duration : 1h 49mn
Bit rate mode : Constant
Bit rate : 128 Kbps
Minimum bit rate : 128 Kbps
Channel(s) : 2 channels
Sampling rate : 48.0 KHz
Resolution : 16 bits
Stream size : 100 MiB
Writing library : LAME3.97
Encoding settings : CBR

Source: PAL rental (note that PAL/NTSC will give no problems for avi files)

Thanks to Kuthumi!

related torrents

Torrent name

health leech seeds Size

{ } -Mr Jones 1993 DvDrip

2 0 701.01 MB 0
 


comments (0)

Main Menu