Action

Doomsday 2008 MULTiSUBS DVDRip XviD Cocc

  • Download 5x Faster
  • Download torrent
  • Direct Download
  • Rate this torrent +  |  -
Doomsday 2008 MULTiSUBS DVDRip XviD Cocc

Anonymous and Free Direct Download 300GB+


Torrent info

Name:Doomsday 2008 MULTiSUBS DVDRip XviD Cocc

Total Size: 701.34 MB

Magnet: Magnet Link

Seeds: 4

Leechers: 71

Stream: Watch Online @ Movie4u

Last Updated: 2010-09-22 08:04:38 (Update Now)

Torrent added: 2008-10-08 13:54:24



VPN For Torrents

Torrent Files List


Doomsday.2008.MULTiSUBS.DVDRip.XviD-Cocc.avi (Size: 701.34 MB) (Files: 2)

 Doomsday.2008.MULTiSUBS.DVDRip.XviD-Cocc.avi

699.38 MB

 Sub.rar

1.96 MB
 

Announce URL: http://vip.tracker.thepiratebay.org:80/announce

Torrent description

Doomsday (2008)

A lethal virus spreads throughout the British isles,infecting
millions and killing hundreds of thousands. To contain the
threat, acting authorities brutally quarantine the country as
it succumbs to fear and chaos. The quarantine is successful.
Three decades later, the Reaper virus violently resurfaces in
a major city. An elite group of specialists, including Eden
Sinclair, is urgently dispatched into the still-quarantined
country to retrieve a cure by any means necessary. Shut off
from the rest of the world, the unit must battle through a
andscape that has become a waking nightmare.


Subtitles; Da,Sv,No,Fi

IMDb http://www.imdb.com/title/tt0483607/



General
Complete name : Doomsday.2008.MULTiSUBS.DVDRip.XviD-Cocc.avi
Format : AVI
Format/Info : Audio Video Interleave
File size : 699 MiB
Duration : 1h 48mn
Overall bit rate : 904 Kbps

Video
Format : MPEG-4 Visual
Format profile : Streaming [email protected]
Format settings, BVOP : Yes
Format settings, QPel : No
Format settings, GMC : No warppoints
Format settings, Matrix : Default
Codec ID : XVID
Codec ID/Hint : XviD
Duration : 1h 48mn
Bit rate : 744 Kbps
Width : 640 pixels
Height : 272 pixels
Display aspect ratio : 2.35
Frame rate : 25.000 fps
Resolution : 24 bits
Colorimetry : 4:2:0
Scan type : Progressive
Bits/(Pixel*Frame) : 0.171
Stream size : 576 MiB (82%)
Writing library : XviD 1.1.2 (UTC 2006-11-01)

Audio
Format : MPEG Audio
Format version : Version 1
Format profile : Layer 3
Codec ID : 55
Codec ID/Hint : MP3
Duration : 1h 48mn
Bit rate mode : Variable
Bit rate : 146 Kbps
Minimum bit rate : 128 Kbps
Channel(s) : 2 channels
Sampling rate : 48.0 KHz
Resolution : 16 bits
Stream size : 113 MiB (16%)
Alignment : Aligned on interleaves
Interleave, duration : 24 ms (0.60 video frame)
Interleave, preload duration : 120 ms
Writing library : LAME3.92
Encoding settings : VBR (rh)

Created with: DP MediaInfo version 1.05 (c) by Dirk Paehl
MediaInfoLib - v0.7.7.6

related torrents

Torrent name

health leech seeds Size
 


comments (0)

Main Menu