Other

Felon 2008 DVDRip XviD Cocc

  • Download 5x Faster
  • Download torrent
  • Direct Download
  • Rate this torrent +  |  -
Felon 2008 DVDRip XviD Cocc

Anonymous and Free Direct Download


Torrent info

Name:Felon 2008 DVDRip XviD Cocc

Total Size: 700.73 MB

Magnet: Magnet Link

Seeds: 8

Leechers: 36

Stream: Watch Online @ Movie4u

Last Updated: 2010-12-18 22:30:19 (Update Now)

Torrent added: 2008-10-08 13:53:56



VPN For Torrents

Torrent Files List


Felon.2008.DVDRip.XviD-Cocc.avi (Size: 700.73 MB) (Files: 2)

 Felon.2008.DVDRip.XviD-Cocc.avi

699.23 MB

 Sub.rar

1.50 MB
 

Announce URL: http://vip.tracker.thepiratebay.org:80/announce

Torrent description

Felon (2008)

A loving family man with a promising future loses everything when
he accidentally kills the burglar who broke into his home.
Covicted of involuntary manslaughter, he is sentence to spend the
next three years inside a maximum security facility where the rules
of society no longer apply.


Subtitles; Sv, En,

IMDb http://www.imdb.com/title/tt1117385/




General
Complete name : Felon.2008.DVDRip.XviD-Cocc.avi
Format : AVI
Format/Info : Audio Video Interleave
File size : 699 MiB
Duration : 1h 44mn
Overall bit rate : 939 Kbps

Video
Format : MPEG-4 Visual
Format profile : Streaming [email protected]
Format settings, BVOP : Yes
Format settings, QPel : No
Format settings, GMC : No warppoints
Format settings, Matrix : Default
Codec ID : XVID
Codec ID/Hint : XviD
Duration : 1h 44mn
Bit rate : 802 Kbps
Width : 592 pixels
Height : 320 pixels
Display aspect ratio : 1.850
Frame rate : 23.976 fps
Resolution : 24 bits
Colorimetry : 4:2:0
Scan type : Progressive
Bits/(Pixel*Frame) : 0.177
Stream size : 597 MiB (85%)
Writing library : XviD 1.1.2 (UTC 2006-11-01)

Audio
Format : MPEG Audio
Format version : Version 1
Format profile : Layer 3
Codec ID : 55
Codec ID/Hint : MP3
Duration : 1h 44mn
Bit rate mode : Variable
Bit rate : 124 Kbps
Nominal bit rate : 128 Kbps
Channel(s) : 2 channels
Sampling rate : 48.0 KHz
Resolution : 16 bits
Stream size : 92.6 MiB (13%)
Alignment : Aligned on interleaves
Interleave, duration : 24 ms (0.58 video frame)
Interleave, preload duration : 141 ms
Writing library : LAME3.90.
Encoding settings : ABR

Created with: DP MediaInfo version 1.05 (c) by Dirk Paehl
MediaInfoLib - v0.7.7.6


related torrents

Torrent name

health leech seeds Size
 


comments (0)

Main Menu