Anime - Other

Sol Bianca COMPLETE

  • Download 5x Faster
  • Download torrent
  • Direct Download
  • Rate this torrent +  |  -
Sol Bianca COMPLETE

Anonymous and Free Direct Download


Torrent info

Name:Sol Bianca COMPLETE

Total Size: 995.48 MB

Magnet: Magnet Link

Seeds: 4

Leechers: 5

Stream: Watch Online @ Movie4u

Last Updated: 2010-12-18 22:19:40 (Update Now)

Torrent added: 2008-10-08 12:33:26



VPN For Torrents

Torrent Files List


Sol Bianca 1-2.avi (Size: 995.48 MB) (Files: 3)

 Sol Bianca 1-2.avi

381.03 MB

 Sol Bianca 3-4.avi

289.52 MB

 Sol Bianca 5-6.avi

324.94 MB
 

Announce URL: http://adbt.ath.cx/announce0000000000000000.php

Torrent description

Sol Bianca - DVD RIP- - COMPLETE - Xvid DEUTSCH
Vol. 1 bis 3 sind doppel folgen also insgesamt 6

In einer fernen Zukunft leben Menschen auf verschiedenen Planeten. So auch die Piratenfrauen
April, Jun, Feb, Juani. Sie sind immer auf der Jagd nach kostbaren Schätzen.
Dieses Mal haben sie es auf eine Flintrock Pistole abgesehen. Hierbei müssen sie feststellen, dass
eine Militärtruppe von dem Planet Erde ebenfalls großes Interesse an dieser Flintrock Pistole hat.
Es kommt zum Kampf mit der Militärtruppe. Je mehr sie sich mit dem Militär auseinandersetzen, je mehr
wird auch das Geheimnis über den einst schönen Planeten Erde gelüftet.

Allgemein
Vollständiger Name : C:Users3333DesktopSol Bianca - Vol. 1 bis 3Sol Bianca 1-2.avi
Format : AVI
Format/Info : Audio Video Interleave
Dateigre : 381 MiB
Duration : 1h 0min
Gesamte Bitrate : 883 Kbps
verwendete Encoder-Bibliothek : TMPGEnc 4.0 XPress Version. 4.2.3.193

Video
Format : MPEG-4 Visual
Format profile : Streaming [email protected]
Format settings, BVOP : Ja
Format settings, QPel : Nein
Format settings, GMC : No warppoints
Format settings, Matrix : Default
Muxing mode : Packet Bitstream
Codec ID : XVID
Codec ID/Hint : XviD
Duration : 1h 0min
Bitrate : 683 Kbps
Breite : 688 Pixel
Höhe : 560 Pixel
Bildseitenverhältnis : 1.229
Bildwiederholungsrate : 25,000 FPS
Auflösung : 24 bits
Colorimetry : 4:2:0
Scan type : Progressive
Bits/(Pixel*Frame) : 0.071
Stream size : 295 MiB (77)
verwendete Encoder-Bibliothek : XviD 1.1.2 (UTC 2006-11-01)

Audio
Format : AC-3
Format/Info : Audio Coding 3
Codec ID : 2000
Duration : 1h 0min
Bitraten-Modus : Constant
Bitrate : 192 Kbps
Kanäle : 2 Kanäle
Channel positions : L R
Samplingrate : 48,0 KHz
Stream size : 82,9 MiB (22)
Alignment : Aligned on interleaves
Interleave, duration : 240 ms (6,00 video frames)
Interleave, preload duration : 224 ms

Audio: deutsch

related torrents

Torrent name

health leech seeds Size

Sol Bianca Movie 2 avi

1 1 690.85 MB 0
 


comments (0)

Main Menu