Metal

Nuclear Assault Handle With Care (1989) Eac Flac By Rock City colombo bt org

  • Download 5x Faster
  • Download torrent
  • Direct Download
  • Rate this torrent +  |  -

Torrent info

Name:Nuclear Assault Handle With Care (1989) Eac Flac By Rock City colombo bt org

Total Size: 243.75 MB

Magnet: Magnet Link

Seeds: 0

Leechers: 0

Stream: Watch Full Movie @ Movie4u

Last Updated: 2017-08-28 18:21:29 (Update Now)

Torrent added: 2008-07-07 06:39:56



VPN For Torrents

Torrent Files List


Back.jpg (Size: 243.75 MB) (Files: 10)

 Back.jpg

262.88 KB

 Cd.jpg

137.58 KB

 Colombo - ROCK CITY.JPG

71.29 KB

 Colombo-BT.url

0.11 KB

 Front.jpg

185.28 KB

 Info.txt

6.38 KB

 Inside.jpg

235.29 KB

 Nuclear Assault - Handle With Care.cue

1.52 KB

 Nuclear Assault - Handle With Care.flac

242.87 MB

 Nuclear Assault - Handle With Care.log

3.05 KB
 

tracker

leech seeds
 

Torrent description

Full Album - Eac Flac - Covers included

Rock City Crew


Nuclear Assault   Handle With Care (1989) Eac Flac By Rock City colombo bt org preview 0


Exact Audio Copy V0.99 prebeta 4 from 23. January 2008

EAC extraction logfile from 6. July 2008, 14:25

Nuclear Assault / Handle With Care

Used drive : _NEC DVD_RW ND-3530A Adapter: 1 ID: 1

Read mode : Secure
Utilize accurate stream : Yes
Defeat audio cache : Yes
Make use of C2 pointers : No

Read offset correction : 48
Overread into Lead-In and Lead-Out : No
Fill up missing offset samples with silence : Yes
Delete leading and trailing silent blocks : No
Null samples used in CRC calculations : Yes
Used interface : Installed external ASPI interface

Used output format : User Defined Encoder
Selected bitrate : 1024 kBit/s
Quality : High
Add ID3 tag : No
Command line compressor : C:\Programmi\Exact Audio Copy\FLAC\FLAC.EXE
Additional command line options : -8 -V -T "ARTIST=%a" -T "TITLE=%t" -T "ALBUM=%g" -T "DATE=%y" -T "TRACKNUMBER=%n" -T "GENRE=%m" -T "COMMENT=%e" %s -o %d


TOC of the extracted CD

Track | Start | Length | Start sector | End sector
---------------------------------------------------------
1 | 0:00.00 | 2:58.27 | 0 | 13376
2 | 2:58.27 | 3:18.73 | 13377 | 28299
3 | 6:17.25 | 3:30.25 | 28300 | 44074
4 | 9:47.50 | 2:44.30 | 44075 | 56404
5 | 12:32.05 | 3:20.25 | 56405 | 71429
6 | 15:52.30 | 0:50.22 | 71430 | 75201
7 | 16:42.52 | 2:58.08 | 75202 | 88559
8 | 19:40.60 | 2:33.60 | 88560 | 100094
9 | 22:14.45 | 4:11.20 | 100095 | 118939
10 | 26:25.65 | 2:21.62 | 118940 | 129576
11 | 28:47.52 | 0:32.30 | 129577 | 132006
12 | 29:20.07 | 5:45.25 | 132007 | 157906


Range status and errors

Selected range

Filename C:\Documents and Settings\Maste75\Documenti\Downloads\Nuclear Assault - Handle With Care (1989) [Eac Flac] By Rock City\Nuclear Assault - Handle With Care.wav

Peak level 99.9 %
Range quality 100.0 %
Test CRC ABAC9EAF
Copy CRC ABAC9EAF
Copy OK

No errors occurred


AccurateRip summary

Track 1 accurately ripped (confidence 2) [F343D5D6]
Track 2 accurately ripped (confidence 3) [E21F6248]
Track 3 accurately ripped (confidence 4) [567913AE]
Track 4 accurately ripped (confidence 3) [4472B544]
Track 5 accurately ripped (confidence 3) [0EDCBFF4]
Track 6 accurately ripped (confidence 3) [BC0667C2]
Track 7 accurately ripped (confidence 3) [6732F7A7]
Track 8 accurately ripped (confidence 3) [DDB57833]
Track 9 accurately ripped (confidence 3) [D1E474EF]
Track 10 accurately ripped (confidence 3) [1E98F436]
Track 11 accurately ripped (confidence 3) [5FE68E80]
Track 12 accurately ripped (confidence 2) [4AC03F60]

All tracks accurately ripped

End of status report

related torrents

Torrent name

health leech seeds Size
 


comments (0)

Main Menu

 

script data-cfasync="false" src="//d2ghscazvn398x.cloudfront.net/?cshgd=690275">