Asian

!! DesiNeedz com Drona 2008 1CD PDVD RIP E SUB Jay78 Team DUS

  • Download 5x Faster
  • Download torrent
  • Direct Download
  • Rate this torrent +  |  -

Torrent info

Name:!! DesiNeedz com Drona 2008 1CD PDVD RIP E SUB Jay78 Team DUS

Total Size: 693.83 MB

Magnet: Magnet Link

Seeds: 0

Leechers: 0

Stream: Watch Online @ Movie4u

Last Updated: 2015-12-07 14:20:38 (Update Now)

Torrent added: 2008-10-08 06:38:29



VPN For Torrents

Torrent Files List


Drona 2008 ~ 1CD PDVD RIP ~ E-SUB ~ Jay78 ~ Team DUS.avi (Size: 693.83 MB) (Files: 2)

 Drona 2008 ~ 1CD PDVD RIP ~ E-SUB ~ Jay78 ~ Team DUS.avi

693.80 MB

 Drona 2008 ~ 1CD PDVD RIP ~ E-SUB ~ Jay78 ~ Team DUS.srt

34.16 KB
 

tracker

leech seeds
 

Torrent description

Super Seed 24x7

Click Here for Screenshoots and Videos

Video
Format : MPEG-4 Visual
Format profile : Streaming [email protected]
Format settings, BVOP : Yes
Format settings, QPel : No
Format settings, GMC : No warppoints
Format settings, Matrix : Default
Codec ID : XVID
Codec ID/Hint : XviD
Duration : 2h 22mn
Bit rate : 551 Kbps
Width : 640 pixels
Height : 272 pixels
Display aspect ratio : 2.35
Frame rate : 29.970 fps
Resolution : 8 bits
Colorimetry : 4:2:0
Scan type : Progressive
Bits/(Pixel*Frame) : 0.106
Stream size : 559 MiB (81%)
Writing library : XviD 1.2.0.dev47 (UTC 2006-11-01)
Audio
Format : MPEG Audio
Format version : Version 1
Format profile : Layer 3
Codec ID : 55
Codec ID/Hint : MP3
Bit rate mode : Constant
Bit rate : 128 Kbps
Channel(s) : 2 channels
Sampling rate : 44.1 KHz
Resolution : 16 bits
Stream size : 130 MiB (19%)
Title : mp3VTS_01_1 T01 DELAY 0ms



ScreenShoots

related torrents

Torrent name

health leech seeds Size
 


comments (0)

Main Menu