Asian

!! DesiNeedz com Kidnap 2008 1CD PDVD RIP Jay78 Team DUS avi

  • Download 5x Faster
  • Download torrent
  • Direct Download
  • Rate this torrent +  |  -
!! DesiNeedz com Kidnap 2008 1CD PDVD RIP Jay78 Team DUS avi

Anonymous and Free Direct Download 300GB+


Torrent info

Name:!! DesiNeedz com Kidnap 2008 1CD PDVD RIP Jay78 Team DUS avi

Total Size: 696.87 MB

Magnet: Magnet Link

Seeds: 0

Leechers: 0

Stream: Watch Online @ Movie4u

Last Updated: 2015-08-30 21:46:42 (Update Now)

Torrent added: 2008-10-08 06:38:16



VPN For Torrents

Torrent Files List


Kidnap 2008 ~ 1CD PDVD RIP ~ Jay78 ~ Team DUS.avi (Size: 696.87 MB) (Files: 1)

 Kidnap 2008 ~ 1CD PDVD RIP ~ Jay78 ~ Team DUS.avi

696.87 MB
 

tracker

leech seeds
 

Torrent description

Super Seed 24x7

Click Here for Screenshoots and Videos





Video
Format : MPEG-4 Visual
Format profile : Streaming [email protected]
Format settings, BVOP : Yes
Format settings, QPel : No
Format settings, GMC : No warppoints
Format settings, Matrix : Default
Codec ID : XVID
Codec ID/Hint : XviD
Duration : 2h 20mn
Bit rate : 561 Kbps
Width : 640 pixels
Height : 256 pixels
Display aspect ratio : 2.500
Frame rate : 23.976 fps
Resolution : 8 bits
Colorimetry : 4:2:0
Scan type : Progressive
Bits/(Pixel*Frame) : 0.143
Stream size : 564 MiB (81%)
Writing library : XviD 1.2.0.dev47 (UTC 2006-11-01)
Audio
Format : MPEG Audio
Format version : Version 1
Format profile : Layer 3
Codec ID : 55
Codec ID/Hint : MP3
Bit rate mode : Constant
Bit rate : 128 Kbps
Channel(s) : 2 channels
Sampling rate : 44.1 KHz
Resolution : 16 bits
Stream size : 129 MiB (18%)
Title : mp3 VTS_01_1 T01 DELAY 0ms



related torrents

Torrent name

health leech seeds Size
 


comments (0)

Main Menu