Bleach

Bleach Ep 189 Xvid Eng Subs {1337x} Noir

  • Download 5x Faster
  • Download torrent
  • Direct Download
  • Rate this torrent +  |  -
Bleach Ep 189 Xvid Eng Subs {1337x} Noir

Anonymous and Free Direct Download


Torrent info

Name:Bleach Ep 189 Xvid Eng Subs {1337x} Noir

Total Size: 203.07 MB

Magnet: Magnet Link

Seeds: 7

Leechers: 5

Stream: Watch Online @ Movie4u

Last Updated: 2010-11-29 20:35:15 (Update Now)

Torrent added: 2008-10-08 00:33:10



VPN For Torrents

Torrent Files List


1337x.Org.txt (Size: 203.07 MB) (Files: 3)

 1337x.Org.txt

0.03 KB

 Bleach [Ep 189] [Xvid] {1337x}-Noir.avi

203.06 MB

 Noir.nfo

6.22 KB
 

Announce URL: http://vip.tracker.thepiratebay.org:80/announce

Torrent description

Bleach Ep 189 Xvid Eng Subs {1337x} Noir preview 0

Bleach Ep 189 Xvid Eng Subs {1337x} Noir preview 1

Bleach Ep 189 Xvid Eng Subs {1337x} Noir preview 2

Bleach Ep 189 Xvid Eng Subs {1337x} Noir preview 3

??????
??????? ????
???????? ??????
????????? ???????????
??????? ???????????? ?????????????
????????? ???????????????????????????
?????????? ???????????????????????????
??????????? ?????????????????????????????
?????????????????????????????????????????
?????????????????????????????????????????
?????????????????????????????????????????
?????????????????????????????????????????
?????????????????????????????????????????
???????? ?????????????????????????????????
????????? ????????????????????????????
????????? ????????????????? ????????
????????? ???????????????? ????????
????????? ?????????????? ????????
????????? ?????




**************
* Bleach 189 *
**************

________________________
General Information |
________________________|
_______________________________________________________________
Type : Anime
Format : AVI
Format/Info : Audio Video Interleave
File size : 203Mb
Duration : 24mn 01sec
Language : Japanese
Subtitles : English (Hardcoded)- [By dattebayo]
Genre : Action | Adventure | Fantasy | Thriller
IMDB Link : http://www.imdb.com/title/tt0434665/
Rating : 8.9/10
_______________________________________________________________
________________________________________________________________
Video
Format : MPEG-4 Visual
Format profile : Streaming [email protected]
Format settings, BVOP : Yes
Format settings, QPel : No
Format settings, GMC : No warppoints
Format settings, Matrix : Default
Muxing mode : Packed bitstream
Codec ID : XVID
Codec ID/Hint : XviD
Duration : 24mn 1s
Bit rate : 1 044 Kbps
Width : 608 pixels
Height : 288 pixels
Display aspect ratio : 2.2
Frame rate : 23.976 fps
Resolution : 24 bits
Colorimetry : 4:2:0
Scan type : Progressive
Bits/(Pixel*Frame) : 0.249
Stream size : 179 MiB (100%)
_______________________________________________________________
Audio
Format : MPEG Audio
Format version : Version 1
Format profile : Layer 3
Codec ID : 55
Codec ID/Hint : MP3
Duration : 24mn 1s
Bit rate mode : Constant
Bit rate : 128 Kbps
Channel(s) : 2 channels
Sampling rate : 48.0 KHz
Resolution : 16 bits
Stream size : 22.0 MiB (11%)
Alignment : Aligned on interleaves
Interleave, duration : 42 ms (1.00 video frame)
Interleave, preload duration : 504 ms
_______________________________________________________________
________________
Description
________________
_______________________________________________________________
High school student Kurosaki Ichigo is unlike any ordinary kid.
Why? Because he can see ghosts. Ever since a young age, he's
been able to see spirits from the afterlife. Ichigo's life
completely changes one day when he and his two sisters are
attacked by an evil, hungry and tormented spirit known as a
Hollow. Right in the nick of time, Ichigo and his siblings
are aided by a Shinigami (Death God) named Kuchiki Rukia,
whose responsibility it is to send good spirits (Pluses) to
the afterlife known as Soul Society, and to purify Hollows
and send them up to Soul Society. But during the fight against
the Hollow, Rukia is injured and must transfer her powers to
Ichigo. With this newly acquired power, so begins Kurosaki
Ichigo's training and duty as a Shinigami to maintain the
balance between the world of the living and the world of
the dead...
_______________________________________________________________

___________________
INFORMATION
___________________
_______________________________________________________________
Im doing this for the handfull of people who cant for whatever
Reason it may be play dattebayo's encoding of bleach because
of the H.264/X.264 Codec.Enjoy the Xvid version.
Hueco Mundo arc starts again next week and I'll be starting
To release Xvid versions of the entire Arc.
_______________________________________________________________

___________________
Notes
___________________
_______________________________________________________________
Be aware People are starting to use my tag to create fake files
Make sure its a real genuine release from me, I have never and
will never do Cams,Telesyncs,Telecine. I have never and will
never do Rar files. Try to check 1337x.org to see if the file
exist. Fuck the fakers and enjoy my release.
_______________________________________________________________
___________________
Post Information
___________________
_________________________________
Posted by............: Noir
Posted on............: 10/07/2008
_________________________________

related torrents

Torrent name

health leech seeds Size
 


comments (0)

Main Menu