TV - Other

Die Kickers mnvv2 ws

  • Download 5x Faster
  • Download torrent
  • Direct Download
  • Rate this torrent +  |  -
Die Kickers mnvv2 ws

Anonymous and Free Direct Download 300GB+


Torrent info

Name:Die Kickers mnvv2 ws

Total Size: 6.35 GB

Magnet: Magnet Link

Seeds: 1

Leechers: 4

Stream: Watch Online @ Movie4u

Last Updated: 2010-07-24 03:34:37 (Update Now)

Torrent added: 2008-10-07 19:50:31



VPN For Torrents

Torrent Files List


00-Intro.avi (Size: 6.35 GB) (Files: 27)

 00-Intro.avi

18.05 MB

 Die Kickers - 02 - Morgenmuffel gegen Fruehaufsteher.avi

270.95 MB

 Die Kickers-01 Der Neue.avi

268.04 MB

 Die-Kickers-03 Aerger-Im-Mittelfeld German Dub.avi

271.43 MB

 Die-Kickers-04 Ein-Aussichtsloses-Spiel German Dub.avi

271.01 MB

 die-kickers-05_Feuertaufe_german.dub.avi

182.57 MB

 die-kickers-06_Der-Kapitaen-und-die-Maedchen_german.dub.avi

269.43 MB

 Die-Kickers-07 Gregos-Luftpost German Dub.avi

270.05 MB

 die-kickers-08_Kevin-im-Abseits_german.dub.avi

268.05 MB

 Die-Kickers-09 Ballverbot German Dub.avi

181.92 MB

 die-kickers-10_Sieg-für-Ronny_german.dub.avi

269.34 MB

 die-kickers-11_Heiratsplaene_german.dub.avi

270.78 MB

 die-kickers-12_Sport-mit-Musik_german.dub.avi

272.21 MB

 die-kickers-13_Computer-Fussball._german.dub.avi

269.45 MB

 die-kickers-14.unfaires-spiel..german.dub.avi

270.20 MB

 die-kickers-15_Daniel-in-Gefahr_german.dub_by_stefanos.avi

181.96 MB

 die-kickers-16_Nicht-mit-uns-Trainer_german.dub.avi

182.13 MB

 die-kickers-17_Das-Spiel-um-die-Pralinen_german.dub.avi

182.62 MB

 die-kickers-18_gewichtige-gegner._german.dub.avi

270.52 MB

 die-kickers-19_kein-druchkommen._german.dub.avi

270.35 MB

 die-kickers-20_Kampf-um-die-naechste-Runde_german.du.avi

182.69 MB

 die-kickers-21_das-team-von-der-kueste_german.dub.avi

270.38 MB

 die-kickers-22_die-dritte-runde_german.dub.avi

259.93 MB

 die-kickers-23_Kampf-gegen-das-Aus_german.dub.avi

251.36 MB

 die-kickers-24_Ein-Superstar-schiesst-quer_german.dub.avi

269.34 MB

 die-kickers-25_Der-Rosenkavalier_german.dub.avi

269.71 MB

 die-kickers-26_Sieg-fuer-den-Teamgeist_german.dub.avi

283.56 MB
 

Announce URL: http://mnvv2.ws/announce.php

Torrent description

Video
Format : MPEG-4 Visual
Format settings, BVOP : Ja
Format settings, QPel : Nein
Format settings, GMC : No warppoints
Format settings, Matrix : Default
Codec ID : DX50
Codec ID/Hint : DivX 5
Duration : 21min
Bitrate : 1 585 Kbps
Breite : 640 Pixel
Höhe : 480 Pixel
Bildseitenverhältnis : 4/3
Bildwiederholungsrate : 25,000 FPS
Auflösung : 24 bits
Scan type : Progressive
Bits/(Pixel*Frame) : 0.206
Stream size : 247 MiB (92)
verwendete Encoder-Bibliothek : DivX 5.0.5 (UTC 2003-04-24)

Audio
Format : MPEG Audio
Format version : Version 1
Format profile : Layer 3
Codec ID : 55
Codec ID/Hint : MP3
Duration : 21min
Bitraten-Modus : Constant
Bitrate : 128 Kbps
Kanäle : 2 Kanäle
Samplingrate : 48,0 KHz
Auflösung : 16 bits
Video0 Verzögerung : 8ms
Stream size : 19,9 MiB (7)
Alignment : Split accross interleaves
Interleave, duration : 40 ms (1,00 video frame)
Interleave, preload duration : 500 ms

01 Der Neue
02 Morgenmuffel gegen Frühaufsteher
03 Ärger im Mittelfeld
04 Ein aussichtsloses Spiel
05 Feuertaufe
06 Der Kapitän und die Mädchen
07 Gregors Luftpost
08 Kevin im Abseits
09 Ballverbot
10 Sieg für Ronny
11 Heiratspläne
12 Sport mit Musik
13 Computer-Fußball
14 Unfaires Spiel
15 Daniel in Gefahr
16 Nicht mit uns, Trainer
17 Das Spiel um die Pralinen
18 Gewichtiger Gegner
19 Kein Durchkommen
20 Kampf um die nächste Runde
21 Das Team von der Küste
22 Die dritte Runde
23 Kampf gegen das Aus
24 Der Superstar schießt quer
25 Der Rosenkavalier
26 Sieg für den Teamgeist

related torrents

Torrent name

health leech seeds Size
 


comments (0)

Main Menu