Action

Iron Man 2008 MULTiSUBS DVDRip XviD Cocc

  • Download 5x Faster
  • Download torrent
  • Direct Download
  • Rate this torrent +  |  -
Iron Man 2008 MULTiSUBS DVDRip XviD Cocc

Anonymous and Free Direct Download


Torrent info

Name:Iron Man 2008 MULTiSUBS DVDRip XviD Cocc

Total Size: 706.70 MB

Magnet: Magnet Link

Seeds: 1

Leechers: 58

Stream: Watch Online @ Movie4u

Last Updated: 2010-08-04 03:11:03 (Update Now)

Torrent added: 2008-10-07 07:48:26



VPN For Torrents

Torrent Files List


Iron.Man.2008.MULTiSUBS.DVDRip.XviD-Cocc.avi (Size: 706.70 MB) (Files: 2)

 Iron.Man.2008.MULTiSUBS.DVDRip.XviD-Cocc.avi

699.21 MB

 Sub.rar

7.49 MB
 

Announce URL: http://vip.tracker.thepiratebay.org:80/announce

Torrent description

Iron Man (2008)

Tony Stark is the complete playboy who also happens to be an engineering
genius. While in Afghanistan demonstrating a new missile he's captured
and wounded. His captors want him to assemble a missile for them but
instead he creates an armored suit and a means to prevent his death from
the shrapnel left in his chest by the attack. He uses the armored suit to
escape. Back in the U.S. he announces his company will cease making weapons
and he begins work on an updated armored suit only to find that Obadiah
Stane, his second in command at Stark industries has been selling Stark
weapons to the insurgents. He uses his new suit to return to Afghanistan to
destroy the arms and then to stop Stane from misusing his research.


Subtitles; Da,En,Nl,No,Fi,Sv,


IMDb http://www.imdb.com/title/tt0371746/




General
Complete name : Iron.Man.2008.MULTiSUBS.DVDRip.XviD-Cocc.avi
Format : AVI
Format/Info : Audio Video Interleave
File size : 699 MiB
Duration : 2h 0mn
Overall bit rate : 809 Kbps

Video
Format : MPEG-4 Visual
Format profile : Streaming [email protected]
Format settings, BVOP : Yes
Format settings, QPel : No
Format settings, GMC : No warppoints
Format settings, Matrix : Default
Codec ID : XVID
Codec ID/Hint : XviD
Duration : 2h 0mn
Bit rate : 667 Kbps
Width : 640 pixels
Height : 272 pixels
Display aspect ratio : 2.35
Frame rate : 25.000 fps
Resolution : 24 bits
Colorimetry : 4:2:0
Scan type : Progressive
Bits/(Pixel*Frame) : 0.153
Stream size : 577 MiB (82%)
Writing library : XviD 1.1.2 (UTC 2006-11-01)

Audio
Format : MPEG Audio
Format version : Version 1
Format profile : Layer 3
Codec ID : 55
Codec ID/Hint : MP3
Duration : 2h 0mn
Bit rate mode : Variable
Bit rate : 129 Kbps
Nominal bit rate : 128 Kbps
Channel(s) : 2 channels
Sampling rate : 48.0 KHz
Resolution : 16 bits
Stream size : 111 MiB (16%)
Alignment : Aligned on interleaves
Interleave, duration : 24 ms (0.60 video frame)
Interleave, preload duration : 137 ms
Writing library : LAME3.90.
Encoding settings : ABR

Created with: DP MediaInfo version 1.05 (c) by Dirk Paehl
MediaInfoLib - v0.7.7.6









related torrents

Torrent name

health leech seeds Size
 


comments (0)

Main Menu