Sci-Fi

Alien 3DVDRipH264&AACh33tcybermonk

  • Download 5x Faster
  • Download torrent
  • Direct Download
  • Rate this torrent +  |  -
Alien 3DVDRipH264&AACh33tcybermonk

Anonymous and Free Direct Download 300GB+


Torrent info

Name:Alien 3DVDRipH264&AACh33tcybermonk

Total Size: 1.07 GB

Magnet: Magnet Link

Seeds: 1

Leechers: 6

Stream: Watch Online @ Movie4u

Last Updated: 2010-11-14 15:18:35 (Update Now)

Torrent added: 2008-10-06 12:38:56



VPN For Torrents

Torrent Files List


ALIEN 3.mp4 (Size: 1.07 GB) (Files: 6)

 ALIEN 3.mp4

1.07 GB

 ALIEN 3.sfv

0.16 KB

 Alien 3.SHA-1.txt

0.05 KB

 Alien 3.txt

1.24 KB

 Alien 3[DVDRip][H264&AAC][h33t][cybermonk].md5

0.50 KB

 tracked_by_h33t_com.txt

0.02 KB
 

Announce URL: http://www.h33t.com:3310/announce

Torrent description


General

Complete name :ALIEN 3.mp4
Format : MPEG-4
Format profile : Base Media
Codec ID : isom
File size : 1.07 GiB
Duration : 1h 49mn
Overall bit rate : 1395 Kbps

Video

Format : AVC
Format/Info : Advanced Video Codec
Format profile : [email protected]
Format settings, CABAC : No
Format settings, ReFrames : 1 frame
Codec ID : avc1
Duration : 1h 49mn
Bit rate mode : Variable
Bit rate : 1230 Kbps
Width : 720 pixels
Height : 480 pixels
Display aspect ratio : 1.500
Frame rate mode : Constant
Frame rate : 25.000 fps
Standard : NTSC
Colorimetry : 4:2:0
Scan type : Progressive
Bits/(Pixel*Frame) : 0.142
Stream size : 967 MiB (88%)

Audio

Format : AAC
Format/Info : Advanced Audio Codec
Format version : Version 4
Format profile : LC
Format settings, SBR : No
Codec ID : 40
Duration : 1h 49mn
Bit rate mode : Variable
Bit rate : 160 Kbps
Channel(s) : 2 channels
Channel positions : L R
Sampling rate : 48.0 KHz
Resolution : 16 bits
Stream size : 126 MiB (11%)

related torrents

Torrent name

health leech seeds Size
 


comments (0)

Main Menu