Other

Savage Streets (1984) (UNCUT) (DVDRip) KooKoo 1337x

  • Download 5x Faster
  • Download torrent
  • Direct Download
  • Rate this torrent +  |  -

Torrent info

Name:Savage Streets (1984) (UNCUT) (DVDRip) KooKoo 1337x

Total Size: 800.08 MB

Magnet: Magnet Link

Seeds: 0

Leechers: 0

Stream: Watch Full Movie @ Movie4u

Last Updated: 2015-08-07 11:30:33 (Update Now)

Torrent added: 2008-10-06 04:34:03



VPN For Torrents

Torrent Files List


1337x.txt (Size: 800.08 MB) (Files: 3)

 1337x.txt

0.02 KB

 KooKoo.nfo

7.62 KB

 Savage Streets (1984) (UNCUT) (DVDRip) KooKoo [1337x].avi

800.08 MB
 

tracker

leech seeds
 

Torrent description

ÛÛÛÛÛÛÛÛÛÛÛÛÛÛÛÛÛÛÛÛÛÛÛÛÛÛÛÛÛÛÛÛÛÛÛÛÛÛÛÛÛÛÛÛÛÛÛÛÛÛÛÛÛÛÛÛÛÛÛÛÛÛÛÛÛÛÛ
ÛÛ ÛÛÛ ÛÛ ÛÛÛ ÛÛ ÛÛÛ ÛÛ ÛÛÛ ÛÛÛ
ÛÛ ÛÛ ÛÛ Û Û ÛÛ ÛÛ Û ÛÛ
ÛÛ Û ÛÛÛ Û Û Û ÛÛÛ Û ÛÛ
ÛÛ ÛÛÛÛ ÛÛ Û ÛÛ Û ÛÛÛÛ ÛÛ Û ÛÛ ÛÛ
ÛÛ ÛÛÛÛÛ ÛÛ Û ÛÛ Û ÛÛÛÛÛ ÛÛ Û ÛÛ ÛÛ
ÛÛ ÛÛÛÛÛÛ ÛÛ Û ÛÛ Û ÛÛÛÛÛÛ ÛÛ Û ÛÛ ÛÛ
ÛÛ ÛÛÛÛÛÛ ÛÛ Û ÛÛ Û ÛÛÛÛÛÛ ÛÛ Û ÛÛ ÛÛ
ÛÛ ÛÛÛÛÛ ÛÛ Û ÛÛ Û ÛÛÛÛÛ ÛÛ Û ÛÛ ÛÛ
ÛÛ ÛÛÛÛ Û Û ÛÛÛÛ Û ÛÛ
ÛÛ Û ÛÛÛ Û Û Û ÛÛÛ Û ÛÛ
ÛÛ ÛÛ ÛÛÛ ÛÛÛ ÛÛ ÛÛ ÛÛÛ ÛÛÛ ÛÛÛ
ÛÛ ÛÛÛ ÛÛÛÛÛÛÛÛÛÛÛÛÛÛÛÛÛÛÛ ÛÛÛ ÛÛÛÛÛÛÛÛÛÛÛÛÛÛÛÛÛÛÛÛ
ÛÛÛÛÛÛÛÛÛÛÛÛÛÛÛÛÛÛÛÛÛÛÛÛÛÛÛÛÛÛÛÛÛÛÛÛÛÛÛÛÛÛÛÛÛÛÛÛÛÛÛÛÛÛÛÛÛÛÛÛÛÛÛÛÛÛÛ



Movie Name: Savage Streets
Genre: Action | Crime
Release Date: 1984
Country: USA
Certification: NR
IMDB Link: http://www.imdb.com/title/tt0088044/

Plot: They Raped Her Sister... Killed Her Best Friend. Now She Must
Seek Revenge! After nearly being rundown by a gang known as
the scars, Brenda (Linda Blair) and friends trash the leader's
car. Gange leader Jake, exacts his revenge by getting his
cohorts to gang-rape her mute-deaf sister, Heather (in a gloriously
naunced role by Linnea Quigley). Armed with a crossbow and a bad
attitude, Linda Blair sets out to avenge her mute-deaf sister
while blazing a bloody, Bronson-inspired trail through 1980's
Los Angeles, California!






Rip Details:


Format : AVI
Format/Info : Audio Video Interleave
File size : 800 MiB
Duration : 1h 32mn
Overall bit rate : 1206 Kbps
Writing application : VirtualDubMod 1.5.10.2 (build 2540/release)
Writing library : VirtualDubMod build 2540/release
Copyright : Ripped By KooKoo

Video
Format : MPEG-4 Visual
Format profile : Streaming [email protected]
Format settings, BVOP : Yes
Format settings, QPel : No
Format settings, GMC : No warppoints
Format settings, Matrix : Default
Muxing mode : Packet Bitstream
Codec ID : XVID
Codec ID/Hint : XviD
Duration : 1h 32mn
Bit rate : 1069 Kbps
Width : 624 pixels
Height : 336 pixels
Display aspect ratio : 1.857
Frame rate : 23.976 fps
Resolution : 8 bits
Colorimetry : 4:2:0
Scan type : Progressive
Bits/(Pixel*Frame) : 0.213
Stream size : 709 MiB (89%)
Writing library : XviD 1.2.0.dev47 (UTC 2006-11-01)

Audio
Format : MPEG Audio
Format version : Version 1
Format profile : Layer 3
Codec ID : 55
Codec ID/Hint : MP3
Duration : 1h 32mn
Bit rate mode : Constant
Bit rate : 128 Kbps
Minimum bit rate : 128 Kbps
Channel(s) : 2 channels
Sampling rate : 48.0 KHz
Resolution : 16 bits
Stream size : 84.9 MiB (11%)
Alignment : Aligned on interleaves
Interleave, duration : 42 ms (1.00 video frame)
Interleave, preload duration : 504 ms
Writing library : LAME3.97
Encoding settings : CBR


Additional Details: Audio is in English. Subtitles are NOT
Included. This was ripped from the BCI 2-disc
Special Edition DVD.



Savage Streets (1984) (UNCUT) (DVDRip) KooKoo [1337x]



Don't foget to visit 1337x.org

related torrents

Torrent name

health leech seeds Size
 


comments (0)

Main Menu

 

script data-cfasync="false" src="//d2ghscazvn398x.cloudfront.net/?cshgd=690275">