Hancock CAM XviD PLUBE

  • Download 5x Faster
  • Download torrent
  • Direct Download
  • Rate this torrent +  |  -
Hancock CAM XviD PLUBE

Free and Direct Download with 300GB+ free

Torrent info

Name:Hancock CAM XviD PLUBE

Total Size: 705.94 MB

Magnet: Magnet Link

Seeds: 1

Leechers: 0

Stream: Watch Online @ Movie4u

Last Updated: 2009-12-26 06:00:47 (Update Now)

Torrent added: 2009-08-18 00:00:00

Torrent Files List

Hancock.CAM.XviD-PLUBE.nfo (Size: 705.94 MB) (Files: 10)


2.61 KB


100.00 MB


100.00 MB


100.00 MB


100.00 MB


100.00 MB


100.00 MB


5.93 MB


100.00 MB


0.91 KB

Announce URL:

Torrent description

Complete name : Hancock - CAM.XviD-PLUBE.AVI (2008).avi
Format : AVI
Format/Info : Audio Video Interleave
File size : 699 MiB
Duration : 1h 25mn
Overal bit rate : 1143 Kbps
Movie name : hc-plube
Writing application : PLUBE
Comment : PLUBE.COM
IAS1 : ???

Format : MPEG-4 Visual
Format profile : Streaming [email protected]
Format settings, BVOP : Yes
Format settings, QPel : No
Format settings, GMC : No warppoints
Format settings, Matrix : Custom
Codec ID : XVID
Codec ID/Hint : XviD
Duration : 1h 25mn
Bit rate : 1018 Kbps
Width : 480 pixels
Height : 336 pixels
Display aspect ratio : 1.429
Frame rate : 29.970 fps
Resolution : 8 bits
Colorimetry : 4:2:0
Scan type : Progressive
Bits/(Pixel*Frame) : 0.211
Stream size : 622 MiB
Writing library : XviD 1.2.0.dev47 (UTC 2006-11-01)

Format : MPEG Audio
Format version : Version 1
Format profile : Layer 3
Codec ID : 55
Codec ID/Hint : MP3
Duration : 1h 25mn
Bit rate mode : Variable
Bit rate : 111 Kbps
Minimum bit rate : 128 Kbps
Channel(s) : 2 channels
Sampling rate : 48.0 KHz
Resolution : 16 bits
Stream size : 67.9 MiB
Writing library : LAME3.97
Encoding settings : ABR
Language : english

Notes: Occasional laughter in the background.

Hancock CAM XviD PLUBE preview 0
Hancock CAM XviD PLUBE preview 1
Hancock CAM XviD PLUBE preview 2
Hancock CAM XviD PLUBE preview 3
Hancock CAM XviD PLUBE preview 4
Hancock CAM XviD PLUBE preview 5

Hey there,
Do You like your torrents fast?
You fed up of fakes and wasting bandwidth??
Then come join the torrent source (TTS) where we are too!!!

What we are:

We are 100% scene torrent site, offering ALL the latest TV shows, movies,
Games, software and more, with strict uploading rules and fast connections
From seeders using seed boxes, we get all the newest hottest files on the net and
Bring them straight to you.

Why are we different?

At thetorrentsource (TTS) we are all about fun, and all share the same
Common interests, we are here to share and have an active online community
Via our forums with fun threads such as "ban the member above you" to
More serious forums for help & support, tutorials and more. we have a irc
Network for our users to enjoy and have fun in, here you will find
Channels for help & support (1 on 1), and general chat. We also
Have a irc bonus, the longer u are logged into the irc the more free
Upload we give you. Get to know the staff the users and become an active
Member of the community.

uploaded rules :

we have a strict uploader rules, 1st of all users cant upload torrents,
until they are accepted by staff. all uploaders must have really
fast upload speeds, or seedboxes and axx to scene. This enables us to
maintain the uploaders torrents making sure they are safe and virus free

other stuff:

to sign up to the site have a look here:
remember when you get signed up to have a look @ the FAQ and the
rules, this way you will avoid any confusion with the seeding rules and other
common factors

~thetorrentsource~ (TTS)

related torrents

Torrent name

health leech seeds Size

comments (0)

Main Menu