Top Gear

Top Gear S11E03 2008 07 06 x264 Moto

  • Download 5x Faster
  • Download torrent
  • Direct Download
  • Rate this torrent +  |  -
Top Gear S11E03 2008 07 06 x264 Moto

Anonymous and Direct Download 300GB+ free


Torrent info

Name:Top Gear S11E03 2008 07 06 x264 Moto

Total Size: 750.93 MB

Magnet: Magnet Link

Seeds: 0

Leechers: 0

Stream: Watch Online @ Movie4u

Last Updated: 2015-09-01 02:23:10 (Update Now)

Torrent added: 2008-07-06 21:35:56




Torrent Files List


Top.Gear.S11.E03.2008.07.06.x264-Moto.mp4 (Size: 750.93 MB) (Files: 1)

 Top.Gear.S11.E03.2008.07.06.x264-Moto.mp4

750.93 MB
 

tracker

leech seeds
 

Torrent description

Jeremy Clarkson, Richard Hammond and James May explore the old adage that having owned an Alfa Romeo is the sign of a real automobile addict, testing out three second-hand models, each bought for less than £1,000. The unwieldy Bentley Brooklands receives a power test, and Gavin and Stacey stars James Corden and Mathew Horne go head to head in Reasonably Priced Cars.

Format : MPEG-4
Format profile : Base Media
Codec ID : isom
File size : 751 MiB
Duration : 1h 31s
Overal bit rate : 1735 Kbps
Encoded date : UTC 2008-07-05 21:49:27
Tagged date : UTC 2008-07-05 21:49:27

Video
Format : AVC
Format/Info : Advanced Video Codec
Format profile : [email protected]
Format settings, CABAC : Yes
Format settings, ReFrames : 3
Codec ID : avc1
Duration : 1h 31s
Bit rate mode : VBR
Bit rate : 1600 Kbps
Maximum bit rate : 6597 Kbps
Width : 704 pixels
Height : 400 pixels
Display aspect ratio : 16/9
Frame rate mode : CFR
Frame rate : 25.000 fps
Colorimetry : 4:2:0
Scan type : Progressive
Bits/(Pixel*Frame) : 0.227
Stream size : 693 MiB
Encoded date : UTC 2008-07-05 20:25:34
Tagged date : UTC 2008-07-05 21:50:39

Audio
Format : AAC
Format/Info : Advanced Audio Codec
Format version : Version 4
Format profile : LC
Format settings, SBR : No
Duration : 1h 31s
Bit rate mode : VBR
Bit rate : 132.3 Kbps
Maximum bit rate : 137 Kbps
Channel(s) : 2 channels
Channel positions : L R
Sampling rate : 48.0 KHz
Resolution : 16 bits
Stream size : 56.8 MiB
Encoded date : UTC 2008-07-05 21:50:36
Tagged date : UTC 2008-07-05 21:50:39

XBOX 360: YES
PS3: YES

related torrents

Torrent name

health leech seeds Size
 


comments (0)

Main Menu