Sci-Fi

No Escape (1994) Ray Liotta Lance Henriksen (MULTISUBS) 4429640 TPB

  • Download 5x Faster
  • Download torrent
  • Direct Download
  • Rate this torrent +  |  -

Torrent info

Name:No Escape (1994) Ray Liotta Lance Henriksen (MULTISUBS) 4429640 TPB

Total Size: 697.23 MB

Magnet: Magnet Link

Seeds: 0

Leechers: 0

Stream: Watch Online @ Movie4u

Last Updated: 2013-06-24 04:04:13 (Update Now)

Torrent added: 2008-10-05 13:50:33



VPN For Torrents

Torrent Files List


Info about this release.txt (Size: 697.23 MB) (Files: 10)

 Info about this release.txt

4.51 KB

 No Escape (1994) Ray Liotta + Lance Henriksen (MULTISUBS)_Kuth.avi

696.58 MB

 Optional subtitles

  Dansk.rar

19.40 KB

  English.rar

19.08 KB

  Islands.rar

21.81 KB

  Norsk.rar

19.40 KB

  Notes on subtitle files.txt

2.05 KB

  Suomi.rar

20.04 KB

  Svenska (idx-sub).rar

543.86 KB

  Svenska (srt).rar

19.46 KB
 

Announce URL:

Torrent description

No Escape (1994)
aka
No Escape from Absolom (1994)
Escape from Absolom (1994)
Flykten från Absolom (1994)

Subs in srt format:
Danish, English, Finnish, Icelandic, Norwegian, Swedish
Swedish subtitles in idx/sub format.

Classic science fiction action about the prisoner's island where convicts have divided into two camps of the good guys and the bad guys.

I have uploaded this once before, and thought it deserves a quality rip with all available subs from my DVD.

DVD-rip 2-pass Widescreen 704x384, very good stereo Ac3.
Burn tested, runs well in both my standalone DivX players.

Format/Info : Audio Video Interleave
File size : 697 MiB
Duration : 1h 53mn
Overal bit rate : 857 Kbps

Video
Format : MPEG-4 Visual
Format profile : Streaming [email protected]
Format settings, BVOP : Yes
Format settings, QPel : No
Format settings, GMC : No warppoints
Format settings, Matrix : Default
Muxing mode : Packet Bitstream
Codec ID : XVID
Codec ID/Hint : XviD
Duration : 1h 53mn
Bit rate : 720 Kbps
Width : 704 pixels
Height : 384 pixels
Display aspect ratio : 16/9
Frame rate : 25.000 fps
Resolution : 8 bits
Colorimetry : 4:2:0
Scan type : Progressive
Bits/(Pixel*Frame) : 0.106
Stream size : 585 MiB
Writing library : XviD 1.2.0.dev47 (UTC 2006-11-01)

Audio
Format : MPEG Audio
Format version : Version 1
Format profile : Layer 3
Codec ID : 55
Codec ID/Hint : MP3
Duration : 1h 53mn
Bit rate mode : Constant
Bit rate : 128 Kbps
Minimum bit rate : 128 Kbps
Channel(s) : 2 channels
Sampling rate : 48.0 KHz
Resolution : 16 bits
Stream size : 104 MiB
Writing library : LAME3.97
Encoding settings : CBR

Source: PAL retail (note that PAL/NTSC will give no problems for avi files)

Thank you Kuthumi!

related torrents

Torrent name

health leech seeds Size
 


comments (0)

Main Menu