Comedy

The Cottage 2008 DVDRip XviD Cocc

  • Download 5x Faster
  • Download torrent
  • Direct Download
  • Rate this torrent +  |  -
The Cottage 2008 DVDRip XviD Cocc

Anonymous and Free Direct Download 300GB+


Torrent info

Name:The Cottage 2008 DVDRip XviD Cocc

Total Size: 699.88 MB

Magnet: Magnet Link

Seeds: 0

Leechers: 0

Stream: Watch Online @ Movie4u

Last Updated: 2010-09-22 03:56:51 (Update Now)

Torrent added: 2008-10-05 12:42:18



VPN For Torrents

Torrent Files List


Sub.rar (Size: 699.88 MB) (Files: 2)

 Sub.rar

876.79 KB

 The.Cottage.2008.DVDRip.XviD-Cocc.avi

699.02 MB
 

Announce URL: http://tracker.openbittorrent.com/announce

Torrent description

The Cottage (2008)

When David and his clumsy brother Peter kidnap the daughter
of a powerful gangster, they bring Tracey to a cottage in
the countryside in the trunk of their car. Peter calls T
racey's father and asks a ransom of one hundred thousand
pound to be delivered to her step-brother Andrew. When the
bag is delivered to the moron Andrew, he does not check the
content and is followed to the remote location by two
Chinese hit-men hired by Tracey's father. When the abductors
discover that the bag has only paper, David drives to a
nearby village to make a phone call to demand the money.
When he returns, he finds Andrew fainted and later that T
racey had reverted the situation and escaped with his brother
as hostage. Meanwhile an insane and deformed farmer has just
killed the killers and Tracey and Peter are heading to his
farmer seeking a phone to call her father.




Subtitles Sv,En

IMDb http://www.imdb.com/title/tt0465430/




General
Complete name : The.Cottage.2008.DVDRip.XviD-Cocc.avi
Format : AVI
Format/Info : Audio Video Interleave
File size : 699 MiB
Duration : 1h 31mn
Overall bit rate : 1 068 Kbps

Video
Format : MPEG-4 Visual
Format profile : Streaming [email protected]
Format settings, BVOP : Yes
Format settings, QPel : No
Format settings, GMC : No warppoints
Format settings, Matrix : Default
Codec ID : XVID
Codec ID/Hint : XviD
Duration : 1h 31mn
Bit rate : 908 Kbps
Width : 640 pixels
Height : 272 pixels
Display aspect ratio : 2.35
Frame rate : 23.976 fps
Resolution : 24 bits
Colorimetry : 4:2:0
Scan type : Progressive
Bits/(Pixel*Frame) : 0.218
Stream size : 595 MiB (85%)
Writing library : XviD 1.1.2 (UTC 2006-11-01)

Audio
Format : MPEG Audio
Format version : Version 1
Format profile : Layer 3
Codec ID : 55
Codec ID/Hint : MP3
Duration : 1h 31mn
Bit rate mode : Variable
Bit rate : 146 Kbps
Minimum bit rate : 128 Kbps
Channel(s) : 2 channels
Sampling rate : 48.0 KHz
Resolution : 16 bits
Stream size : 95.9 MiB (14%)
Alignment : Aligned on interleaves
Interleave, duration : 24 ms (0.58 video frame)
Interleave, preload duration : 121 ms
Writing library : LAME3.92
Encoding settings : VBR (rh)

Created with: DP MediaInfo version 1.05 (c) by Dirk Paehl
MediaInfoLib - v0.7.7.6

related torrents

Torrent name

health leech seeds Size
 


comments (0)

Main Menu