Pop

Jovanotti Safari Lossless Flac Cue 2008

  • Download 5x Faster
  • Download torrent
  • Direct Download
  • Rate this torrent +  |  -
Jovanotti Safari Lossless Flac Cue 2008

Anonymous and free Direct Download 300GB+


Torrent info

Name:Jovanotti Safari Lossless Flac Cue 2008

Total Size: 345.34 MB

Magnet: Magnet Link

Seeds: 1

Leechers: 10

Stream: Watch Online @ Movie4u

Last Updated: 0000-00-00 00:00:00 (Update Now)

Torrent added: 2008-10-05 10:54:58



VPN For Torrents

Torrent Files List


Jovanotti - Safari - Back.jpg (Size: 345.34 MB) (Files: 7)

 Jovanotti - Safari - Back.jpg

226.55 KB

 Jovanotti - Safari - Back2.jpg

3.06 MB

 Jovanotti - Safari - CD.jpg

294.96 KB

 Jovanotti - Safari - Front.jpg

936.02 KB

 Jovanotti - Safari.cue

1.37 KB

 Jovanotti - Safari.flac

340.85 MB

 Safari.log

2.73 KB
 

Announce URL: http://denis.stalker.h3q.com:6969/announce

Torrent description

[size=19pt][color=blue] Jovanotti - Safari [Flac] 2008 [/color][/size]

Jovanotti   Safari Lossless Flac Cue 2008 preview 0


[size=10pt][color=black][color=red]Titolo: Safari[/color]
Artista: Jovanotti
Genere: Pop
Data Di Uscita: 18 gennaio 2008
Format: Lossless [Flac con il Cue.]
Consigliato :Usare Foobar 2000 per ascoltarlo
Consigliato:Usare Brrrn per masterizzarlo.
Cover:Incluse

Jovanotti   Safari Lossless Flac Cue 2008 preview 1


[color=red]Tracklist Disc 1[/color]

1. Fango
2. Mezzogiorno
3. A te
4. Dove ho visto te
5. In orbita
6. Safari
7. Temporale
8. Come musica
9. Innamorato
10. Punto
11. Antidolorificomagnifico
12. Mani libere 2008


Jovanotti   Safari Lossless Flac Cue 2008 preview 2
---------------------------------------------------------------------------------------------------------------------------------------
Jovanotti   Safari Lossless Flac Cue 2008 preview 3


E' dedicato al fratello Umberto, scomparso lo scorso 22 ottobre in un incidente aereo, il nuovo album di Jovanotti, Safari, in uscita venerdì 18. "E' l'avventura più bella di vent'anni di carriera - racconta - non avrei mai sperato di avvicinarmi a questo livello, io volevo fare il deejay, ma poi la musica è diventata una dolce ossessione, una compagna che la mia compagna in carne e ossa deve condividere con me". La pubblicazione del disco è accompagnata da un diario di lavorazione scritto e illustrato dallo stesso Jovanotti.


Nell'album, collaborazioni prestigiose, come quella con Ben Harper, che suona la chitarra nel singolo Fango. "Il suo è stato un regalo artistico e non solo, quando gli ho domandato come ci saremmo regolati con le rispettive case discografiche, mi ha chiesto solo di mettere il suo nome sul cd". Con il leader dei Negramaro, Giuliano Sangiorgi, ospite del brano Safari, invece, "c'é una frequentazione e una stima reciproca da anni", che si è concretizzata in uno scambio reciproco di favori, con Jovanotti ospite dell'album dei Negramaro e viceversa.


A Los Angeles, dove ha registrato parte del disco, Jovanotti ha invece incontrato Michael Franti, che duetta con lui in Mani libere 2008, il brano che chiude l'album. Safari sarà presentato dal vivo durante un tour che partirà il prossimo 10

maggio da Rimini e si concluderà il 2 giugno a Perugia.





[code]Exact Audio Copy V0.99 prebeta 3 from 28. July 2007

EAC extraction logfile from 17. July 2008, 11:12

Jovanotti / Safari

Used drive : _NEC DVD_RW ND-3550A Adapter: 5 ID: 0

Read mode : Secure
Utilize accurate stream : Yes
Defeat audio cache : Yes
Make use of C2 pointers : No

Read offset correction : 48
Overread into Lead-In and Lead-Out : No
Fill up missing offset samples with silence : Yes
Delete leading and trailing silent blocks : No
Null samples used in CRC calculations : No
Used interface : Installed external ASPI interface

Used output format : User Defined Encoder
Selected bitrate : 768 kBit/s
Quality : High
Add ID3 tag : No
Command line compressor : C:\Programmi\Exact Audio Copy\FLAC\FLAC.EXE
Additional command line options : -6 -V -T "ARTIST=%a" -T "TITLE=%t" -T "ALBUM=%g" -T "DATE=%y" -T "TRACKNUMBER=%n" -T "GENRE=%m" -T "COMMENT=%e" %s -o %d


TOC of the extracted CD

Track | Start | Length | Start sector | End sector
---------------------------------------------------------
1 | 0:00.00 | 4:34.27 | 0 | 20576
2 | 4:34.27 | 4:21.41 | 20577 | 40192
3 | 8:55.68 | 4:25.29 | 40193 | 60096
4 | 13:21.22 | 4:30.06 | 60097 | 80352
5 | 17:51.28 | 4:33.07 | 80353 | 100834
6 | 22:24.35 | 4:25.30 | 100835 | 120739
7 | 26:49.65 | 5:53.53 | 120740 | 147267
8 | 32:43.43 | 3:50.17 | 147268 | 164534
9 | 36:33.60 | 2:38.23 | 164535 | 176407
10 | 39:12.08 | 4:10.61 | 176408 | 195218
11 | 43:22.69 | 4:26.22 | 195219 | 215190
12 | 47:49.16 | 4:24.35 | 215191 | 235025


Range status and errors

Selected range

Filename D:\Documents and Settings\salvo.SN116508160310\Documenti\Jovanotti - Safari.wav

Peak level 100.0 %
Range quality 99.9 %
Test CRC FE817999
Copy CRC FE817999
Copy OK

No errors occurred


AccurateRip summary

Track 1 not present in database
Track 2 not present in database
Track 3 not present in database
Track 4 not present in database
Track 5 not present in database
Track 6 not present in database
Track 7 not present in database
Track 8 not present in database
Track 9 not present in database
Track 10 not present in database
Track 11 not present in database
Track 12 not present in database

None of the tracks are present in the AccurateRip database

End of status report
[/code]


[size=13pt][color=red]trailer[/color][/size]



[youtube]http://it.youtube.com/watch?v=FSea1YPxK1c[/youtube]


[b][size=10pt][color=red]cover[/color][/size]


Jovanotti   Safari Lossless Flac Cue 2008 preview 4Jovanotti   Safari Lossless Flac Cue 2008 preview 5


[size=19pt][color=black]download[/color][/size]


[size=10pt][color=blue]seed:24 su 24 primi 5 completi
banda:20-60kb\s[/color][/size]


[size=20pt][color=blue]Solo su KingAndMark in versione Lossless [/color][/size]


Tracker usato http://denis.stalker.h3q.com:6969/announce

related torrents

Torrent name

health leech seeds Size
 


comments (0)

Main Menu