Romance

Hand To Mouth 7

  • Download 5x Faster
  • Download torrent
  • Direct Download
  • Rate this torrent +  |  -
Hand To Mouth 7

Anonymous and Free Direct Download


Torrent info

Name:Hand To Mouth 7

Total Size: 1.36 GB

Magnet: Magnet Link

Seeds: 1

Leechers: 0

Stream: Watch Online @ Movie4u

Last Updated: 2010-11-29 20:14:05 (Update Now)

Torrent added: 2008-10-05 09:35:07



VPN For Torrents

Torrent Files List


Hand.To.Mouth.7(DVDRiP)(www.pornorip.net)(CD1).avi (Size: 1.36 GB) (Files: 5)

 Hand.To.Mouth.7(DVDRiP)(www.pornorip.net)(CD1).avi

699.69 MB

 Hand.To.Mouth.7(DVDRiP)(www.pornorip.net)(CD2).avi

696.62 MB

 Hand.To.Mouth.7(DVDRiP)(www.pornorip.net).jpg

105.77 KB

 Mp3Ninja.com - Ultimate Mp3 Music Collection.url

0.08 KB

 PornoRip.net - Free Adult Movies BitTorrent Network.url

0.08 KB
 

Announce URL: http://darkroom.webhop.org/announce.php

Torrent description

llgemein
Vollstndiger Name : FownloadTempFinest blowjob n handjob collectionFinest blowjob n handjob collection Angela Stone.avi
Format : AVI
Format/Info : Audio Video Interleave
Video
Format : MPEG-4 Visual
Format profile : [email protected]
Format settings, BVOP : Nein
Format settings, QPel : Nein
Format settings, GMC : No warppoints
Format settings, Matrix : Default
Codec ID : DIVX
Codec ID/Info : Project Mayo
Codec ID/Hint : DivX 4
Duration : 8min 41s
Bitrate : 2 499 Kbps
Breite : 640 Pixel
Hhe : 480 Pixel
Bildseitenverhltnis : 4/3
Bildwiederholungsrate : 29,970 FPS
Auflsung : 24 bits
Colorimetry : 4:2:0
Scan type : Progressive
Bits/(Pixel*Frame) : 0.271
Stream size : 155 MiB (94)
verwendete Encoder-Bibliothek : avc2.0.11.1110

Audio
Format : MPEG Audio
Format version : Version 1
Format profile : Layer 3
Codec ID : 55
Codec ID/Hint : MP3
Duration : 8min 41s
Bitraten-Modus : Constant
Bitrate : 160 Kbps
Kanle : 2 Kanle
Samplingrate : 44,1 KHz
Auflsung : 16 bits
Stream size : 9,94 MiB (6)
Alignment : Aligned on interleaves
Interleave, duration : 26 ms (0,78 video frame).

related torrents

Torrent name

health leech seeds Size

Hand To Mouth 6

4 4 1.00 GB 0

Hand to mouth 4

24 6 4.36 GB 0
 


comments (0)

Main Menu