Thriller

The Jacket (2005) DvdRip Xvid {1337x} Noir

  • Download 5x Faster
  • Download torrent
  • Direct Download
  • Rate this torrent +  |  -
The Jacket (2005) DvdRip Xvid {1337x} Noir

Anonymous and Direct Download 300GB+ free


Torrent info

Name:The Jacket (2005) DvdRip Xvid {1337x} Noir

Total Size: 706.83 MB

Magnet: Magnet Link

Seeds: 0

Leechers: 0

Stream: Watch Online @ Movie4u

Last Updated: 0000-00-00 00:00:00 (Update Now)

Torrent added: 2008-10-05 09:27:04




Torrent Files List


1337x.Org.txt (Size: 706.83 MB) (Files: 3)

 1337x.Org.txt

0.03 KB

 Noir.nfo

5.79 KB

 The Jacket (2005) [DvdRip] [Xvid] {1337x}-Noir.avi

706.83 MB
 

Announce URL:

Torrent description

The Jacket (2005) DvdRip Xvid {1337x} Noir preview 0

Screenshots

The Jacket (2005) DvdRip Xvid {1337x} Noir preview 1

The Jacket (2005) DvdRip Xvid {1337x} Noir preview 2

The Jacket (2005) DvdRip Xvid {1337x} Noir preview 3

The Jacket (2005) DvdRip Xvid {1337x} Noir preview 4

[code]

▓▓▓▓▓▓
▓█████▓ ▓▓▓▓
▓██████▓ ▓▓███▓
▓▓██████▓ ▓████▓▓▓▓▓▓
██████▓ ▓██▒█▓▓███▓▓ ▓▓▓▓▓▓▓▓▓▓▓▓▓
▓██▒████▓ ▓██▒█▓██████▓▓███▓███▓███▓▓
▓██▒▒████▓ ▓██▒███▒▒▒▒██▓████████████▓
▓██▒▒▒▒███▓ ▓██▒██▒▒▒▒▒▒███▒▒▒██▒█▒▒▒██▓▓
▓██▒▒██▒▒██▓▓██▒██▒▒█▒▒▒▒███████▒▒▒▒▒▒██▓
▓██▒▒███▒▒██▓██▒██▒█▓█▒▒▒██▒▒▒██▒▒██▒▒▒█▓
▓██▒▒████▒▒████▒██▒█▓█▒▒▒██▒▒▒██▒▒███▒██▓
▓██▒▒█▓███▒▒███▒██▒▒█▒▒▒▒██▒▒▒██▒▒██████▓
▓██▒▒█▓▓███▒▒██▒██▒▒▒▒▒▒▒██▒▒▒██▒▒██▓███▓
▓▓██▒▒█▓ ▓███▒▒█▒██▒▒▒▒▒▒▒███████▒▒██▓▓▓▓▓
▓▓███▒▒█▓ ▓███▒▒▒███▒▒▒▒▒██▓▓▓▓██▒▒██▓
▓████▒▒█▓ ▓███▒▒█████████▓▓ ▓██▒▒██▓
▓████▒▒█▓ ▓███▒█▓██████▓▓▓ ▓██████▓
▓███████▓ ▓▓████▓▓▓▓▓▓▓▓ ▓▓▓▓▓▓▓▓
▓▓▓▓▓▓▓▓▓ ▓▓▓▓▓




**********************
* The Jacket (2005) *
**********************

________________________
General Information |
________________________|
_______________________________________________________________
Type : Movie
Format : AVI
Format/Info : Audio Video Interleave
File size : 707Mb
Duration : 1h 43mn
Language : English
Subtitles : None
Source : Dvd NTSC
Genre : Fantasy | Horror | Sci-Fi | Thriller
IMDB Link : http://www.imdb.com/title/tt0366627/
Rating : 7.0/10
_______________________________________________________________
________________________________________________________________
Video
Format : MPEG-4 Visual
Format profile : Streaming [email protected]
Format settings, BVOP : Yes
Format settings, QPel : No
Format settings, GMC : No warppoints
Format settings, Matrix : Default
Muxing mode : Packed bitstream
Codec ID : DX50/60 | Xvid 1.2.0
Codec ID/Hint : DivX 5
Duration : 1h 43mn
Bit rate : 821 Kbps
Width : 672 pixels
Height : 272 pixels
Display aspect ratio : 2.35
Frame rate : 23.976 fps
Resolution : 24 bits
Colorimetry : 4:2:0
Scan type : Progressive
Bits/(Pixel*Frame) : 0.187
Stream size : 606 MiB (86%)
Writing library : XviD 1.2.0.dev47
_______________________________________________________________
Audio
Format : MPEG Audio
Format version : Version 1
Format profile : Layer 3
Codec ID : 55
Codec ID/Hint : MP3
Duration : 1h 43mn
Bit rate mode : Constant
Bit rate : 128 Kbps
Channel(s) : 2 channels
Sampling rate : 48.0 KHz
Resolution : 16 bits
Stream size : 94.4 MiB (13%)
Alignment : Aligned on interleaves
Interleave, duration : 42 ms (1.00 video frame)
Interleave, preload duration : 504 ms
_______________________________________________________________
________________
Description
________________
_______________________________________________________________
The film centers on a wounded Gulf war veteran who returns to
his native Vermont suffering from bouts of amnesia. He is
hitching and gets picked up by a stranger, things go pear
shaped when a cop pulls them over and is murdered by the
stranger. The vet. is wrongly accused of killing the cop
and lands up in an asylum. A quack doctor prescribes a course
of experimental therapy, restraining him in a heavy duty
straight jacket-like device, and locks him away in a body
drawer of the basement morgue. During course of his treatment
he gets flashbacks and visions of his future , where he can
foresee he is to die in four days time. The catch is he
doesn\'t know how. Thus commences the classic race against time
_______________________________________________________________

___________________
Notes
___________________
_______________________________________________________________
Be aware People are starting to use my tag to create fake files
Make sure its a real genuine release from me, I have never and
will never do Cams,Telesyncs,Telecine. I have never and will
never do Rar files. Try to check 1337x.org to see if the file
exist. Fuck the fakers and enjoy my release.
_______________________________________________________________
___________________
Post Information
___________________
_________________________________
Posted by............: Noir
Posted on............: 10/05/2008
_________________________________
[/code]
The Jacket (2005) DvdRip Xvid {1337x} Noir preview 5

The Jacket (2005) DvdRip Xvid {1337x} Noir preview 6

related torrents

Torrent name

health leech seeds Size
 


comments (0)

Main Menu