Horror

FEAST (2005) (UNRATED) (DVDRip) KooKoo 1337x

  • Download 5x Faster
  • Download torrent
  • Direct Download
  • Rate this torrent +  |  -
FEAST (2005) (UNRATED) (DVDRip) KooKoo 1337x

Anonymous and Free Direct Download 300GB+


Torrent info

Name:FEAST (2005) (UNRATED) (DVDRip) KooKoo 1337x

Total Size: 705.93 MB

Magnet: Magnet Link

Seeds: 0

Leechers: 0

Stream: Watch Online @ Movie4u

Last Updated: 2011-09-29 12:11:33 (Update Now)

Torrent added: 2008-10-05 08:34:54



VPN For Torrents

Torrent Files List


Subtitles (Size: 705.93 MB) (Files: 5)

 Subtitles

  FEAST (2005) (UNRATED) (DVDRip) KooKoo [1337x].idx

88.01 KB

  FEAST (2005) (UNRATED) (DVDRip) KooKoo [1337x].sub

6.80 MB

 1337x.txt

0.02 KB

 FEAST (2005) (UNRATED) (DVDRip) KooKoo [1337x].avi

699.04 MB

 KooKoo.nfo

7.68 KB
 

Announce URL:

Torrent description


ÛÛÛÛÛÛÛÛÛÛÛÛÛÛÛÛÛÛÛÛÛÛÛÛÛÛÛÛÛÛÛÛÛÛÛÛÛÛÛÛÛÛÛÛÛÛÛÛÛÛÛÛÛÛÛÛÛÛÛÛÛÛÛÛÛÛÛ
ÛÛ ÛÛÛ ÛÛ ÛÛÛ ÛÛ ÛÛÛ ÛÛ ÛÛÛ ÛÛÛ
ÛÛ ÛÛ ÛÛ Û Û ÛÛ ÛÛ Û ÛÛ
ÛÛ Û ÛÛÛ Û Û Û ÛÛÛ Û ÛÛ
ÛÛ ÛÛÛÛ ÛÛ Û ÛÛ Û ÛÛÛÛ ÛÛ Û ÛÛ ÛÛ
ÛÛ ÛÛÛÛÛ ÛÛ Û ÛÛ Û ÛÛÛÛÛ ÛÛ Û ÛÛ ÛÛ
ÛÛ ÛÛÛÛÛÛ ÛÛ Û ÛÛ Û ÛÛÛÛÛÛ ÛÛ Û ÛÛ ÛÛ
ÛÛ ÛÛÛÛÛÛ ÛÛ Û ÛÛ Û ÛÛÛÛÛÛ ÛÛ Û ÛÛ ÛÛ
ÛÛ ÛÛÛÛÛ ÛÛ Û ÛÛ Û ÛÛÛÛÛ ÛÛ Û ÛÛ ÛÛ
ÛÛ ÛÛÛÛ Û Û ÛÛÛÛ Û ÛÛ
ÛÛ Û ÛÛÛ Û Û Û ÛÛÛ Û ÛÛ
ÛÛ ÛÛ ÛÛÛ ÛÛÛ ÛÛ ÛÛ ÛÛÛ ÛÛÛ ÛÛÛ
ÛÛ ÛÛÛ ÛÛÛÛÛÛÛÛÛÛÛÛÛÛÛÛÛÛÛ ÛÛÛ ÛÛÛÛÛÛÛÛÛÛÛÛÛÛÛÛÛÛÛÛ
ÛÛÛÛÛÛÛÛÛÛÛÛÛÛÛÛÛÛÛÛÛÛÛÛÛÛÛÛÛÛÛÛÛÛÛÛÛÛÛÛÛÛÛÛÛÛÛÛÛÛÛÛÛÛÛÛÛÛÛÛÛÛÛÛÛÛÛ



Movie Name: FEAST
Genre: Horror | Comdey
Release Date: 2005
Country: USA
Certification: NR
IMDB Link: http://www.imdb.com/title/tt0426459/

Plot: They're Hungry. You're Dinner. From executive producers Wes Craven,
Ben Affleck, Matt Damon and Chris Moore comes the "incredible horror
extravaganza" Feast (Harry Knowles, Ain't It Cool News), whose
production was chronicled on the third season of Bravo's hit reality
series Project Greenlight.

When a motley crew of strangers find themselves trapped in an
isolated tavern, they must band together in a battle for survival
against a family of flesh-hungry creatures. Terrifying and full of
surprises, feast turns the screen blood red as the group is devoured
one by one.



Rip Details:


Format : AVI
Format/Info : Audio Video Interleave
File size : 699 MiB
Duration : 1h 26mn
Overall bit rate : 1125 Kbps
Writing application : VirtualDubMod 1.5.10.2 (build 2540/release)
Writing library : VirtualDubMod build 2540/release
Copyright : Ripped By KooKoo

Video
Format : MPEG-4 Visual
Format profile : Streaming [email protected]
Format settings, BVOP : Yes
Format settings, QPel : No
Format settings, GMC : No warppoints
Format settings, Matrix : Default
Muxing mode : Packet Bitstream
Codec ID : XVID
Codec ID/Hint : XviD
Duration : 1h 26mn
Bit rate : 988 Kbpss
Width : 640 pixels
Height : 272 pixels
Display aspect ratio : 2.35
Frame rate : 23.976 fps
Resolution : 8 bits
Colorimetry : 4:2:0
Scan type : Progressive
Bits/(Pixel*Frame) : 0.237
Stream size : 614 MiB (88%)
Writing library : XviD 1.2.0.dev47 (UTC 2006-11-01)

Audio
Format : MPEG Audio
Format version : Version 1
Format profile : Layer 3
Codec ID : 55
Codec ID/Hint : MP3
Duration : 1h 26mn
Bit rate mode : Constant
Bit rate : 128 Kbps
Minimum bit rate : 128 Kbps
Channel(s) : 2 channels
Sampling rate : 48.0 KHz
Resolution : 16 bits
Stream size : 79.5 MiB (11%)
Alignment : Aligned on interleaves
Interleave, duration : 42 ms (1.00 video frame)
Interleave, preload duration : 504 ms
Writing library : LAME3.97
Encoding settings : CBR


Additional Details: Audio is in English. Subtitles are included in idx/sub
format. Languages for subs include: English, Spanish.



FEAST (2005) (UNRATED) (DVDRip) KooKoo [1337x]



Don't foget to visit 1337x.org

related torrents

Torrent name

health leech seeds Size
 


comments (0)

Main Menu