Anime - Other

Maho Tsukai Tai Vol 1 & 2 Komplett

  • Download 5x Faster
  • Download torrent
  • Direct Download
  • Rate this torrent +  |  -
Maho Tsukai Tai Vol 1 & 2 Komplett

Anonymous and Free Direct Download 300GB+


Torrent info

Name:Maho Tsukai Tai Vol 1 & 2 Komplett

Total Size: 1.65 GB

Magnet: Magnet Link

Seeds: 1

Leechers: 2

Stream: Watch Online @ Movie4u

Last Updated: 2011-01-07 17:43:02 (Update Now)

Torrent added: 2008-10-05 04:33:02



VPN For Torrents

Torrent Files List


Maho Tsukai Tai 01.avi (Size: 1.65 GB) (Files: 6)

 Maho Tsukai Tai 01.avi

269.66 MB

 Maho Tsukai Tai 02.avi

270.72 MB

 Maho Tsukai Tai 03.avi

268.44 MB

 Maho Tsukai Tai 04.avi

286.60 MB

 Maho Tsukai Tai 05.avi

298.74 MB

 Maho Tsukai Tai 06.avi

294.49 MB
 

Announce URL: http://adbt.ath.cx/announce0000000000000000.php

Torrent description

Maho Tsukai Tai Vol. 1 & 2 - Komplett - Deutsch- avi

Vor nicht allzu langer Zeit besiegten außerirdische Eroberer die Erdstreitkräfte und nahmen den
blauen Planeten binnen kürzester Zeit in Besitz. Seitdem observieren sie still die menschliche
Rasse durch so genannte fliegende Eyeballs und verhalten sich auch sonst unauffällig.
Sie beachten sogar die Verkehrsregeln. Doch es gibt eine Gruppe, die diesem Frieden nicht traut: Der
Magie-Club der Kitanohashi Highschool. Unter der Führung von Clubpräsident Takakura und mit der
tatkräftigen Unterstützung des neuen weiblichen Mitglieds Sae Sawanoguchi nehmen die Magier-Anwärter
den Kampf mit den übermächtigen Aliens auf doch vorher müssen sie lernen, ihre Zauberkräfte richtig
zu benutzen


Vollständiger Name : C:Users3333DesktopMaho Tsukai TaiMaho Tsukai Tai 01.avi
Format : AVI
Format/Info : Audio Video Interleave
Dateigre : 270 MiB
Duration : 25min
Gesamte Bitrate : 1 506 Kbps

Video
Format : MPEG-4 Visual
Format profile : [email protected]
Format settings, BVOP : Nein
Format settings, QPel : Nein
Format settings, GMC : No warppoints
Format settings, Matrix : Default
Codec ID : XVID
Codec ID/Hint : XviD
Duration : 25min
Bitrate : 1 301 Kbps
Breite : 720 Pixel
Höhe : 576 Pixel
Bildseitenverhältnis : 5/4
Bildwiederholungsrate : 25,000 FPS
Standard : PAL
Auflösung : 24 bits
Colorimetry : 4:2:0
Scan type : Progressive
Bits/(Pixel*Frame) : 0.125
Stream size : 233 MiB (86)
verwendete Encoder-Bibliothek : XviD 1.1.0 Beta2 (UTC 2005-04-04)

Audio
Format : MPEG Audio
Format version : Version 1
Format profile : Layer 3
Codec ID : 55
Codec ID/Hint : MP3
Bitraten-Modus : Constant
Bitrate : 192 Kbps
Kanäle : 2 Kanäle
Samplingrate : 48,0 KHz
Auflösung : 16 bits
Stream size : 34,4 MiB (13)
Alignment : Aligned on interleaves
Interleave, duration : 24 ms (0,60 video frame)

Allgemein
Vollständiger Name : C:Users3333DesktopMaho Tsukai TaiMaho Tsukai Tai 02.avi
Format : AVI
Format/Info : Audio Video Interleave
Dateigre : 271 MiB
Duration : 25min
Gesamte Bitrate : 1 506 Kbps

Video
Format : MPEG-4 Visual
Format profile : [email protected]
Format settings, BVOP : Nein
Format settings, QPel : Nein
Format settings, GMC : No warppoints
Format settings, Matrix : Default
Codec ID : XVID
Codec ID/Hint : XviD
Duration : 25min
Bitrate : 1 301 Kbps
Breite : 720 Pixel
Höhe : 576 Pixel
Bildseitenverhältnis : 5/4
Bildwiederholungsrate : 25,000 FPS
Standard : PAL
Auflösung : 24 bits
Colorimetry : 4:2:0
Scan type : Progressive
Bits/(Pixel*Frame) : 0.125
Stream size : 234 MiB (86)
verwendete Encoder-Bibliothek : XviD 1.1.0 Beta2 (UTC 2005-04-04)

Audio
Format : MPEG Audio
Format version : Version 1
Format profile : Layer 3
Codec ID : 55
Codec ID/Hint : MP3
Bitraten-Modus : Constant
Bitrate : 192 Kbps
Kanäle : 2 Kanäle
Samplingrate : 48,0 KHz
Auflösung : 16 bits
Stream size : 34,5 MiB (13)
Alignment : Aligned on interleaves
Interleave, duration : 24 ms (0,60 video frame)

Audio: deutsch

related torrents

Torrent name

health leech seeds Size

Maho Tsukai Tai! DVD1

0 0 6.82 GB 0
 


comments (0)

Main Menu