Other

Fully Informed Jury by Red Beckman avi

  • Download 5x Faster
  • Download torrent
  • Direct Download
  • Rate this torrent +  |  -
Fully Informed Jury by Red Beckman avi

Anonymous and Free Direct Download


Torrent info

Name:Fully Informed Jury by Red Beckman avi

Total Size: 702.41 MB

Magnet: Magnet Link

Seeds: 2

Leechers: 4

Stream: Watch Online @ Movie4u

Last Updated: 2010-10-09 17:11:17 (Update Now)

Torrent added: 2008-10-05 00:35:09



VPN For Torrents

Torrent Files List


Fully Informed Jury by Red Beckman.avi (Size: 702.41 MB) (Files: 1)

 Fully Informed Jury by Red Beckman.avi

702.41 MB
 

Announce URL: http://genesis.1337x.org:1337/announce

Torrent description

Fully Informed Jury by Red Beckman avi preview 0

Format : AVI
Format/Info : Audio Video Interleave
File size : 702 MiB
Duration : 1h 54mn
Overall bit rate : 861 Kbps
Movie name : DVD_VOLUME.Title1.DVDRip
Director : HP_Administrator
Writing application : Lavf51.19.0
Product : DVD_VOLUME

Video
Format : MPEG-4 Visual
Format profile : [email protected]
Format settings, BVOP : No
Format settings, QPel : No
Format settings, GMC : No warppoints
Format settings, Matrix : Default
Codec ID : XVID
Codec ID/Hint : XviD
Duration : 1h 54mn
Bit rate : 719 Kbps
Width : 544 pixels
Height : 416 pixels
Display aspect ratio : 4/3
Frame rate : 29.970 fps
Resolution : 24 bits
Colorimetry : 4:2:0
Scan type : Progressive
Bits/(Pixel*Frame) : 0.106
Stream size : 587 MiB (84%)
Writing library : XviD 1.1.2 (UTC 2006-11-01)

Audio
Format : MPEG Audio
Format version : Version 1
Format profile : Layer 3
Codec ID : 55
Codec ID/Hint : MP3
Duration : 1h 54mn
Bit rate mode : Constant
Bit rate : 128 Kbps
Channel(s) : 2 channels
Sampling rate : 48.0 KHz
Resolution : 16 bits
Stream size : 104 MiB (15%)
Alignment : Aligned on interleaves
Interleave, duration : 24 ms (0.72 video frame)

related torrents

Torrent name

health leech seeds Size

Red Beckman LA Law Seminar

1 1 444.03 MB 0
 


comments (0)

Main Menu