J F K : Reckless Youth (1993)

  • Download 5x Faster
  • Download torrent
  • Direct Download
  • Rate this torrent +  |  -
J F K : Reckless Youth (1993)

Free and Direct Download with Usenet.nl 300GB+ free

Torrent info

Name:J F K : Reckless Youth (1993)

Total Size: 804.93 MB

Magnet: Magnet Link

Seeds: 4

Leechers: 6

Stream: Watch Online @ Movie4u

Last Updated: 0000-00-00 00:00:00 (Update Now)

Torrent added: 2008-10-05 00:35:08

Torrent Files List

Info about this release.txt (Size: 804.93 MB) (Files: 4)

 Info about this release.txt

4.91 KB

 JFK Reckless Youth (1993) _part1.avi

398.78 MB

 JFK Reckless Youth (1993) _part2.avi

398.72 MB


  JFK-Reckless Youth-Sample.avi

7.43 MB

Announce URL: http://tpb.tracker.thepiratebay.org/announce

Torrent description

J.F.K.: Reckless Youth (1993)
aka J.F.K. Reckless Youth (1993) J.F.K.: Reckless Youth (1993)

Based on Nigel Hamilton's novel

Patrick Dempsey (now known from Grey's Anatomy) is superb as young JFK. This hard-to find movie traces the first 30 years of his life, describing many less known events - especially his romance with Danish journalist Inga Arvad, suspected of being a German spy.

This made-for-TV production must have been "lost in distribution". Not many people have seen it and very few have had a chance to vote on imdb. But it HAS been published on DVD, and is found on my shelves. As often happens with such productions, picture quality is not brilliant on the DVD. My new ripping procedure gave decent quality for just 2x400 MiB for this 2x90 min. miniseries. Spending more filespace would not have improved it, but I include a sample for ye weak in faith.

Original fullscreen 624x448, 2-pass rip, good stereo sound AC3.
Burn tested, runs well in both my standalone DivX players.

Format/Info : Audio Video Interleave
File size : 399 MiB
Duration : 1h 31mn
Overal bit rate : 608 Kbps

Format : MPEG-4 Visual
Format profile : Streaming [email protected]
Format settings, BVOP : Yes
Format settings, QPel : No
Format settings, GMC : No warppoints
Format settings, Matrix : Default
Muxing mode : Packet Bitstream
Codec ID : XVID
Codec ID/Hint : XviD
Duration : 1h 31mn
Bit rate : 471 Kbps
Width : 624 pixels
Height : 448 pixels
Display aspect ratio : 1.393
Frame rate : 23.976 fps
Resolution : 8 bits
Colorimetry : 4:2:0
Scan type : Progressive
Bits/(Pixel*Frame) : 0.070
Stream size : 309 MiB
Writing library : XviD 1.2.0.dev47 (UTC 2006-11-01)

Format : MPEG Audio
Format version : Version 1
Format profile : Layer 3
Codec ID : 55
Codec ID/Hint : MP3
Duration : 1h 31mn x 2
Bit rate mode : Constant
Bit rate : 128 Kbps
Minimum bit rate : 128 Kbps
Channel(s) : 2 channels
Sampling rate : 48.0 KHz
Resolution : 16 bits
Stream size : 83.9 MiB
Writing library : LAME3.97
Encoding settings : CBR

Source: NTSC IVTC (note that PAL/NTSC will give no problems for avi files)

Thanks to Kuthumi!

related torrents

Torrent name

health leech seeds Size

comments (0)

Main Menu