Action

Hancock(2008)Xvid(DD5 1) imacRuel1

  • Download 5x Faster
  • Download torrent
  • Direct Download
  • Rate this torrent +  |  -
Hancock(2008)Xvid(DD5 1) imacRuel1

Download FREE And Anonymously


Torrent info

Name:Hancock(2008)Xvid(DD5 1) imacRuel1

Total Size: 896.85 MB

Magnet: Magnet Link

Seeds: 1

Leechers: 10

Stream: Watch Full Movie @ Movie4u

Last Updated: 2010-07-29 10:18:11 (Update Now)

Torrent added: 2008-10-05 00:34:51



VPN For Torrents

Torrent Files List


Hancock(2008)Xvid(DD5.1)- imacRuel1.avi (Size: 896.85 MB) (Files: 3)

 Hancock(2008)Xvid(DD5.1)- imacRuel1.avi

896.78 MB

 Hancock(2008)Xvid(DD5.1)- imacRuel1.srt

77.73 KB

 Torrent downloaded from Demonoid.com.txt

0.05 KB
 

Announce URL: http://inferno.demonoid.com:3396/announce

Torrent description

Hancock(2008)Xvid(DD5 1)  imacRuel1 preview 0

[color=red]MOVIE INFO :[/color]
imacRuel1 Presents : [color=blue]HANCOCK (2008)[/color]
Director : Peter Berg
Genre : Action | Comedy | Crime | Drama | Fantasy | Thriller
Language : English
Subtitle : English (.srt)
IMDB Rating : 6.7/10 (55,325 votes)
IMDB URL : http://www.imdb.com/title/tt0448157/
Torrent Name : [color=green]Hancock(2008)Xvid(DD5.1)- imacRuel1[/color]
Format : AVI
File size : 896 MiB (1/5) DVDr)
Duration : 1h 32mn 15sec
Source : DVDr (NTSC R1)- Alliance
Writing application : VirtualDubMod 1.5.10.2
Writing library : VirtualDubMod/Xvid 1.1/Avisynth+Plugins

[color=red]CASTS :[/color]
Will Smith ... John Hancock
Charlize Theron ... Mary Embrey
Jason Bateman ... Ray Embrey
Jae Head ... Aaron Embrey
Eddie Marsan ... Kenneth 'Red' Parker Jr.
David Mattey ... Man Mountain
Maetrix Fitten ... Matrix
Thomas Lennon ... Mike
Johnny Galecki ... Jeremy

[color=red]Video Info :[/color]
Codec ID : DX50
Bit rate : 902 Kbps
Width : 672 pixels
Height : 272 pixels
Display aspect ratio : 2.471
Frame rate : 23.976 fps
Bits/(Pixel*Frame) : 0.206
Stream size : 595 MiB (66%)

[color=red]Audio Info :[/color]
Format : AC-3
Bit rate mode : Constant
Bit rate : 448 Kbps
Channel(s) : 6 channels
Channel positions : Front: L C R, Rear: L R, LFE
Sampling rate : 48.0 KHz
Stream size : 296 MiB (33%)

[color=red]PLOT :[/color]
A hard-living superhero who has fallen out of favor with the public enters into a questionable relationship with the wife of the public relations professional who's trying to repair his image.

[color=red]Hash Info :[/color] 47c9f580 d3a0d43a 698c8e41 d14506e3 df3f2d3c

[color=red]Trackers :[/color]
http://inferno.demonoid.com:3396/announce
http://tracker.torrentbox.com:2710/announce
http://open.tracker.thepiratebay.org/announce
http://denis.stalker.h3q.com:6969/announce
http://tracker.prq.to/announce

[color=blue]SCREENSHOTS :[/color]
Hancock(2008)Xvid(DD5 1)  imacRuel1 preview 1
Hancock(2008)Xvid(DD5 1)  imacRuel1 preview 2
Hancock(2008)Xvid(DD5 1)  imacRuel1 preview 3
Hancock(2008)Xvid(DD5 1)  imacRuel1 preview 4

related torrents

Torrent name

health leech seeds Size
 


comments (0)

Main Menu

 

script data-cfasync="false" src="//d2ghscazvn398x.cloudfront.net/?cshgd=690275">