Romance

Extrem Schwanz Im Arsch, Faust In Der Fotze

  • Download 5x Faster
  • Download torrent
  • Direct Download
  • Rate this torrent +  |  -
Extrem Schwanz Im Arsch, Faust In Der Fotze

Anonymous and Free Direct Download


Torrent info

Name:Extrem Schwanz Im Arsch, Faust In Der Fotze

Total Size: 0.98 GB

Magnet: Magnet Link

Seeds: 1

Leechers: 0

Stream: Watch Online @ Movie4u

Last Updated: 2010-12-29 19:13:45 (Update Now)

Torrent added: 2008-10-04 22:49:13



VPN For Torrents

Torrent Files List


Extrem - Schwanz Im Arsch, Faust In Der Fotze.avi (Size: 0.98 GB) (Files: 1)

 Extrem - Schwanz Im Arsch, Faust In Der Fotze.avi

0.98 GB
 

Announce URL: http://darkroom.webhop.org/announce.php

Torrent description

Zwei Zentimeter über ihrer Nase steckt ein Schwanz im Arsch ihrer Freundin und sie leckt gierig den Lustschleim aus ihrer Fotze-herrlich versaut sind diese geilen Schlampen. Tittenficks, DP, Lesbo-Schweinereien, Spermasaufen, Dildo-Spiele bis hin zum Faustfick - sie sind für jede Spielart zu haben- Hauptsache sie ist total EXTREM. (Originaltext)

Video
Format : MPEG-4 Visual
Format profile : Streaming [email protected]
Format settings, BVOP : Ja
Format settings, QPel : Nein
Format settings, GMC : No warppoints
Format settings, Matrix : Custom
Codec ID : XVID
Codec ID/Hint : XviD
Duration : 1h 42min
Bitrate : 1 160 Kbps
Breite : 512 Pixel
Höhe : 384 Pixel
Bildseitenverhältnis : 4/3
Bildwiederholungsrate : 25,000 FPS
Auflösung : 24 bits
Colorimetry : 4:2:0
Scan type : Progressive
Bits/(Pixel*Frame) : 0.236
Stream size : 854 MiB (85)
verwendete Encoder-Bibliothek : XviD 1.0.3 (UTC 2004-12-20)

Audio
Format : AC-3
Format/Info : Audio Coding 3
Codec ID : 2000
Duration : 1h 42min
Bitraten-Modus : Constant
Bitrate : 192 Kbps
Kanäle : 2 Kanäle
Channel positions : L R
Samplingrate : 48,0 KHz
Stream size : 141 MiB (14)
Alignment : Aligned on interleaves
Interleave, duration : 96 ms (2,40 video frames)
Interleave, preload duration : 96 ms

related torrents

Torrent name

health leech seeds Size
 


comments (0)

Main Menu