Horror

FEAST II (2008) (UNRATED) (DVDRip) KooKoo 1337x

  • Download 5x Faster
  • Download torrent
  • Direct Download
  • Rate this torrent +  |  -
FEAST II (2008) (UNRATED) (DVDRip) KooKoo 1337x

Anonymous and free Direct Download 300GB+


Torrent info

Name:FEAST II (2008) (UNRATED) (DVDRip) KooKoo 1337x

Total Size: 734.99 MB

Magnet: Magnet Link

Seeds: 3

Leechers: 2

Stream: Watch Online @ Movie4u

Last Updated: 2011-05-21 06:07:34 (Update Now)

Torrent added: 2008-10-04 22:48:13



VPN For Torrents

Torrent Files List


Subtitles (Size: 734.99 MB) (Files: 5)

 Subtitles

  FEAST II (2008) (UNRATED) (DVDRip) KooKoo [1337x].idx

79.88 KB

  FEAST II (2008) (UNRATED) (DVDRip) KooKoo [1337x].sub

5.76 MB

 1337x.txt

0.02 KB

 FEAST II (2008) (UNRATED) (DVDRip) KooKoo [1337x].avi

729.14 MB

 KooKoo.nfo

7.34 KB
 

Announce URL: http://genesis.1337x.org:1337/announce

Torrent description


ÛÛÛÛÛÛÛÛÛÛÛÛÛÛÛÛÛÛÛÛÛÛÛÛÛÛÛÛÛÛÛÛÛÛÛÛÛÛÛÛÛÛÛÛÛÛÛÛÛÛÛÛÛÛÛÛÛÛÛÛÛÛÛÛÛÛÛ
ÛÛ ÛÛÛ ÛÛ ÛÛÛ ÛÛ ÛÛÛ ÛÛ ÛÛÛ ÛÛÛ
ÛÛ ÛÛ ÛÛ Û Û ÛÛ ÛÛ Û ÛÛ
ÛÛ Û ÛÛÛ Û Û Û ÛÛÛ Û ÛÛ
ÛÛ ÛÛÛÛ ÛÛ Û ÛÛ Û ÛÛÛÛ ÛÛ Û ÛÛ ÛÛ
ÛÛ ÛÛÛÛÛ ÛÛ Û ÛÛ Û ÛÛÛÛÛ ÛÛ Û ÛÛ ÛÛ
ÛÛ ÛÛÛÛÛÛ ÛÛ Û ÛÛ Û ÛÛÛÛÛÛ ÛÛ Û ÛÛ ÛÛ
ÛÛ ÛÛÛÛÛÛ ÛÛ Û ÛÛ Û ÛÛÛÛÛÛ ÛÛ Û ÛÛ ÛÛ
ÛÛ ÛÛÛÛÛ ÛÛ Û ÛÛ Û ÛÛÛÛÛ ÛÛ Û ÛÛ ÛÛ
ÛÛ ÛÛÛÛ Û Û ÛÛÛÛ Û ÛÛ
ÛÛ Û ÛÛÛ Û Û Û ÛÛÛ Û ÛÛ
ÛÛ ÛÛ ÛÛÛ ÛÛÛ ÛÛ ÛÛ ÛÛÛ ÛÛÛ ÛÛÛ
ÛÛ ÛÛÛ ÛÛÛÛÛÛÛÛÛÛÛÛÛÛÛÛÛÛÛ ÛÛÛ ÛÛÛÛÛÛÛÛÛÛÛÛÛÛÛÛÛÛÛÛ
ÛÛÛÛÛÛÛÛÛÛÛÛÛÛÛÛÛÛÛÛÛÛÛÛÛÛÛÛÛÛÛÛÛÛÛÛÛÛÛÛÛÛÛÛÛÛÛÛÛÛÛÛÛÛÛÛÛÛÛÛÛÛÛÛÛÛÛ



Movie Name: FEAST II: Sloppy Seconds
Genre: Horror | Comdey
Release Date: 2008
Country: USA
Certification: NR
IMDB Link: http://www.imdb.com/title/tt1104835/

Plot: The monsters have made it into a small neighboring town in the
middle of nowhere and the locals have to band with the survivors of
the bar' slaughter to figure out how to survive.






Rip Details:


Format : AVI
Format/Info : Audio Video Interleave
File size : 729 MiB
Duration : 1h 37mn
Overall bit rate : 1050 Kbps
Writing application : VirtualDubMod 1.5.10.2 (build 2540/release)
Writing library : VirtualDubMod build 2540/release
Copyright : Ripped By KooKoo

Video
Format : MPEG-4 Visual
Format profile : Streaming [email protected]
Format settings, BVOP : Yes
Format settings, QPel : No
Format settings, GMC : No warppoints
Format settings, Matrix : Default
Muxing mode : Packet Bitstream
Codec ID : XVID
Codec ID/Hint : XviD
Duration : 1h 37mn
Bit rate : 913 Kbpss
Width : 640 pixels
Height : 272 pixels
Display aspect ratio : 2.355
Frame rate : 23.976 fps
Resolution : 8 bits
Colorimetry : 4:2:0
Scan type : Progressive
Bits/(Pixel*Frame) : 0.219
Stream size : 634 MiB (87%)
Writing library : XviD 1.2.0.dev47 (UTC 2006-11-01)

Audio
Format : MPEG Audio
Format version : Version 1
Format profile : Layer 3
Codec ID : 55
Codec ID/Hint : MP3
Duration : 1h 37mn
Bit rate mode : Constant
Bit rate : 128 Kbps
Minimum bit rate : 128 Kbps
Channel(s) : 2 channels
Sampling rate : 48.0 KHz
Resolution : 16 bits
Stream size : 88.9 MiB (12%)
Alignment : Aligned on interleaves
Interleave, duration : 42 ms (1.00 video frame)
Interleave, preload duration : 504 ms
Writing library : LAME3.97
Encoding settings : CBR


Additional Details: Audio is in English. Subtitles are included in idx/sub
format. Languages for subs include: English, Spanish



FEAST II (2008) (UNRATED) (DVDRip) KooKoo [1337x]



Don't foget to visit 1337x.org



related torrents

Torrent name

health leech seeds Size
 


comments (0)

Main Menu