Music Videos

B B King Sweet SixteenDVDRipmp4@AACh33tcybermonk

  • Download 5x Faster
  • Download torrent
  • Direct Download
  • Rate this torrent +  |  -
B B King Sweet SixteenDVDRipmp4@AACh33tcybermonk

Free and Direct Download with Usenet 300GB+ free


Torrent info

Name:B B King Sweet SixteenDVDRipmp4@AACh33tcybermonk

Total Size: 666.40 MB

Magnet: Magnet Link

Seeds: 1

Leechers: 24

Stream: Watch Online @ Movie4u

Last Updated: 2010-07-19 20:37:24 (Update Now)

Torrent added: 2008-09-20 11:14:37




Torrent Files List


B B King Sweet Sixteen[DVDRip][mp4@AAC][h33t][cybermonk].md5 (Size: 666.40 MB) (Files: 9)

 B B King Sweet Sixteen[DVDRip][mp4@AAC][h33t][cybermonk].md5

0.36 KB

 B B King Sweet Sixteen[DVDRip][mp4@AAC][h33t][cybermonk].sfv

0.29 KB

 B B King Sweet Sixteen[DVDRip][mp4@AAC][h33t][cybermonk].sha-1.txt

0.56 KB

 BBKing-Sweet16.mp4

658.37 MB

 BBKing-Sweet16.nfo

1.91 KB

 Cover.jpg

6.31 MB

 DVD.jpg

1.71 MB

 hashes BBKing-Sweet16.txt

0.15 KB

 tracked_by_h33t_com.txt

0.02 KB
 

Announce URL: http://www.h33t.com:3310/announce

Torrent description

B. B. King (born Riley B. King on September 16, 1925) is an American blues guitarist and singer-songwriter.
Critical acclaim and widespread popularity have cemented his reputation as one of the most respected and
successful blues musicians. Rolling Stone magazine named him the third-greatest guitarist of "the 100
greatest guitarists of all-time."


Birth name.................................................Riley B. King
Also known as............................................B. B. King
Born..........................................................September 16, 1925 (1925-09-16) (age 83)
Origin........................................................Itta Bena, Mississippi, USA
Genre(s)....................................................Memphis blues, soul-blues, rhythm and blues
Occupation(s).............................................Musician, singer-songwriter
Instrument(s).............................................Vocals, guitar, piano
Years active...............................................1947 – present

Plot

In conjunction with the famous heavyweight title fight between Muhammad Ali and George Foreman, a three day concert was held before an adoring crowd of 80,000. This film documents B.B. King's performance during the concert. The master plays over a half-dozen songs including "Sweet Sixteen", "I Believe In My Soul", "The Thrill Is Gone", and "Why I Sing the Blues". This concert film was directed by Leon Gast, who won an Oscar for his documentary about the Ali/Foreman fight, When We Were Kings.


----------------------------------------------------------------------------------
General
----------------------------------------------------------------------------------
Complete name :BBKing-Sweet16.mp4
Format : MPEG-4
Format profile : Base Media
Codec ID : isom
File size : 658 MiB
Duration : 42mn 37s
Overall bit rate : 2160 Kbps
------------------------------------------------------------------------------------
Video
------------------------------------------------------------------------------------
Format : MPEG-4 Visual
Format profile : Simple@L1
Format settings, BVOP : No
Format settings, QPel : No
Format settings, GMC : No warppoints
Format settings, Matrix : Default
Codec ID : 20
Duration : 42mn 37s
Bit rate mode : Variable
Bit rate : 2003 Kbps
Width : 640 pixels
Height : 480 pixels
Display aspect ratio : 4/3
Frame rate mode : Constant
Frame rate : 29.970 fps
Resolution : 8 bits
Colorimetry : 4:2:0
Scan type : Progressive
Bits/(Pixel*Frame) : 0.218
Stream size : 611 MiB (93%)
Writing library : Lavc51.40.4
---------------------------------------------------------------------------------------
Audio
---------------------------------------------------------------------------------------
Format : AAC
Format/Info : Advanced Audio Codec
Format version : Version 4
Format profile : LC
Format settings, SBR : No
Codec ID : 40
Duration : 42mn 37s
Bit rate mode : Variable
Bit rate : 152 Kbps
Channel(s) : 2 channels
Channel positions : L R
Sampling rate : 44.1 KHz
Resolution : 16 bits
Stream size : 46.3 MiB (7%)

related torrents

Torrent name

health leech seeds Size
 

comments (0)

Main Menu