Movies

[wita]resident Evil 2

  • Download 5x Faster
  • Download torrent
  • Direct Download
  • Rate this torrent +  |  -
[wita]resident Evil 2

Free and Direct Download with Usenet 300GB+ free


Torrent info

Name:[wita]resident Evil 2

Total Size: 787.30 MB

Magnet: Magnet Link

Seeds: 0

Leechers: 0

Stream: Watch Online @ Movie4u

Last Updated: 2009-12-09 18:26:52 (Update Now)

Torrent added: 2009-07-22 04:00:01




Torrent Files List


 

Announce URL: http://windtalkers.mine.nu/announce.php

Torrent description

Der Film setzt dort ein, wo der erste Teil aufgehört hat: Alice erwacht in einem Forschungslabor der Umbrella Corporation, in dem sie mit Drogen ruhiggestellt wurde. Sie findet ziemlich schnell heraus, dass sie mit dem T-Virus infiziert ist dem Virus, das Lebewesen normalerweise zu Zombies mutieren lässt. Bei ihr hat das Virus diese verheerende Auswirkung nicht; ganz im Gegenteil, es lässt sie stärker und schneller werden und schärft ihre Sinne, was sie zu einer unaufhaltsamen, jedoch gutartigen Killermaschine macht.



In der Zwischenzeit verbreitet sich die Epidemie in ganz Raccoon City, Umbrella verbarrikadiert die Stadt, lässt das aus dem Spiel bekannte Monster Nemesis frei mit dem Ziel, alle S.T.A.R.S.-Mitglieder auszuschalten, und plant, die Stadt mit einem gezielten Atomschlag zu vernichten, um alle Spuren auszulöschen.



*MediaInfo*

General

Complete name : Resident.Evil.2-DVDRip.mpg

Format : MPEG-PS

File size : 787 MiB

Duration : 1h 29mn

Overall bit rate : 1 223 Kbps

Writing library : encoded by TMPGEnc (ver. 2.610.49.157)



Video

ID : 224 (0xE0)

Format : MPEG Video

Format version : Version 2

Format profile : Main@Main

Format settings, Matrix : Default

Duration : 1h 29mn

Bit rate mode : Variable

Bit rate : 983 Kbps

Nominal bit rate : 1 050 Kbps

Width : 352 pixels

Height : 576 pixels

Display aspect ratio : 4/3

Frame rate : 25.000 fps

Standard : PAL

Colorimetry : 4:2:0

Scan type : Progressive

Bits/(Pixel*Frame) : 0.194

Stream size : 632 MiB (80)

Writing library : TMPGEnc 2.610.49.157



Audio

ID : 192 (0xC0)

Format : MPEG Audio

Format version : Version 1

Format profile : Layer 2

Duration : 1h 29mn

Bit rate mode : Constant

Bit rate : 192 Kbps

Channel(s) : 2 channels

Sampling rate : 44.1 KHz

Resolution : 16 bits

Stream size : 124 MiB (16)

related torrents

Torrent name

health leech seeds Size
 

comments (0)