Thriller

Tortured 2008 DVDRip AC3 XviD MANiK

  • Download 5x Faster
  • Download torrent
  • Direct Download
  • Rate this torrent +  |  -
Tortured 2008 DVDRip AC3 XviD MANiK

Anonymous and Free Direct Download 300GB+


Torrent info

Name:Tortured 2008 DVDRip AC3 XviD MANiK

Total Size: 1.46 GB

Magnet: Magnet Link

Seeds: 0

Leechers: 0

Stream: Watch Online @ Movie4u

Last Updated: 2010-08-10 02:36:26 (Update Now)

Torrent added: 2008-09-20 10:55:14



VPN For Torrents

Torrent Files List


Tortured.2008.DVDRip.AC3.XviD.MANiK.avi (Size: 1.46 GB) (Files: 2)

 Tortured.2008.DVDRip.AC3.XviD.MANiK.avi

1.46 GB

 Tortured.2008.DVDRip.AC3.XviD.MANiK.srt

80.57 KB
 

Announce URL: http://vip.tracker.thepiratebay.org/announce

Torrent description


Tortured


Genre: Crime, Thriller
Year: 2008
Country: USA, Canada
Runtime: 107 min
Director: Nolan Lebovitz
Cast: Emmanuelle Chriqui, Laurence Fishburne, Jon Cryer, Cole Hauser, James Cromwell, James Denton, Robert LaSardo

Plot:
An undercover FBI agent faces a moral dilemma when he's asked to torture a member of one of the world's most powerful crime syndicates.

http://www.imdb.com/title/tt1029167/

eneral
Complete name : E:Tortured.2008.DVDRip.AC3.XviD.MANiKTortured.2008.DVDRip.AC3.XviD.MANiK.avi
Format : AVI
Format/Info : Audio Video Interleave
File size : 1.46 GiB
Duration : 1h 47mn
Overall bit rate : 1955 Kbps
Writing application : VirtualDubMod 1.5.4.1 (build 2178/release)
Writing library : VirtualDub build 29958/release

Video
Format : MPEG-4 Visual
Format profile : Streaming [email protected]
Format settings, BVOP : No
Format settings, QPel : No
Format settings, GMC : No warppoints
Format settings, Matrix : Custom
Codec ID : XVID
Codec ID/Hint : XviD
Duration : 1h 47mn
Bit rate : 1498 Kbps
Width : 704 pixels
Height : 384 pixels
Display aspect ratio : 16/9
Frame rate : 23.976 fps
Resolution : 8 bits
Colorimetry : 4:2:0
Scan type : Progressive
Bits/(Pixel*Frame) : 0.231
Stream size : 1.12 GiB (77%)
Writing library : XviD 1.2.0.dev47 (UTC 2006-11-01)

Audio
Format : AC-3
Format/Info : Audio Coding 3
Codec ID : 2000
Duration : 1h 47mn
Bit rate mode : Constant
Bit rate : 448 Kbps
Channel(s) : 6 channels
Channel positions : Front: L C R, Rear: L R, LFE
Sampling rate : 48.0 KHz
Video delay : 600ms
Stream size : 343 MiB (23%)
Alignment : Split accross interleaves
Interleave, duration : 42 ms (1.00 video frame)
Interleave, preload duration : 500 ms


related torrents

Torrent name

health leech seeds Size
 


comments (0)

Main Menu