Mongol 2007 DVDRip XviD AC3 Jose

  • Download 5x Faster
  • Download torrent
  • Direct Download
  • Rate this torrent +  |  -
Mongol 2007 DVDRip XviD AC3 Jose

Free and Direct Download with 300GB+ free

Torrent info

Name:Mongol 2007 DVDRip XviD AC3 Jose

Total Size: 1.96 GB

Magnet: Magnet Link

Seeds: 0

Leechers: 0

Stream: Watch Online @ Movie4u

Last Updated: 2010-08-08 04:06:58 (Update Now)

Torrent added: 2008-09-19 13:50:01

Torrent Files List

Mongol.2007.DVDRip.XviD.AC3.Jose.El.Luzu.Allzine.avi (Size: 1.96 GB) (Files: 2)


1.96 GB

36.86 KB

Announce URL:

Torrent description


Genre: Biography, Drama, Romance, War
Year: 2007
Country: Germany, Kazakhstan, Russia
Language: Mongolian
Runtime: 126 min
Director: Sergei Bodrov
Cast: Aliya, Tegen Ao, Tadanobu Asano
.: Plot :.
Mongol is made by an award-winning Russian filmmaker Sergei Bodrov (Prisoner of the Mountains). Here Sergei illuminates the life and legend of Genghis Khan in this stunning historical epic. Based on leading scholarly accounts and written by Bodrov and Arif Aliyev, Mongol delves into the dramatic and harrowing early years of the ruler who was born as Temudgin in 1162. As it follows Temudgin from his perilous childhood to the battle that sealed his destiny, the film paints a multidimensional portrait of the future conqueror, revealing him not as the evil brute of hoary stereotype, but as an inspiring, fearless and visionary leader. Mongol shows us the making of an extraordinary man, and the foundation on which so much of his greatness rested: his relationship with his wife, Borte, his lifelong love and most trusted advisor.

Filmed in the very lands that gave birth to Genghis Khan, Mongol transports us back to a distant and exotic period in world history; to a nomad's landscape of endless space, climatic extremes and ever-present danger. In a performance of powerful stillness and subtlety, celebrated young Japanese actor Asano Tadanobu (Zatoichi, Last Life in the Universe) captures the inner fire that enabled a hunted boy to become a legendary conqueror. Asano's achievement is matched by those of his co-stars, including the radiant newcomer Khulan Chuluun as Temudgin's courageous, spirited wife Borte, and the Chinese actor Honglei Sun (The Road Home) as the Mongol chieftain Jamukha, Temudgin's dearest friend and deadliest enemy. Masterfully blending action and emotion against some of the most arresting terrain on earth, Bodrov delivers an exciting and awe-inspiring tale of survival and triumph, and a love story for the ages.

Rating: 7.4/10

Complete name : E:Mongol.2007.DVDRip.XviD.AC3.Jose.El.Luzu.AllzineMongol.2007.DVDRip.XviD.AC3.Jose.El.Luzu.Allzine.avi
Format : AVI
Format/Info : Audio Video Interleave
File size : 1.96 GiB
Duration : 2h 0mn
Overall bit rate : 2331 Kbps
Writing application : VirtualDubMod (build 2540/release)
Writing library : VirtualDubMod build 2540/release

Format : MPEG-4 Visual
Format profile : Streaming [email protected]
Format settings, BVOP : Yes
Format settings, QPel : No
Format settings, GMC : No warppoints
Format settings, Matrix : Default
Codec ID : XVID
Codec ID/Hint : XviD
Duration : 2h 0mn
Bit rate : 1874 Kbps
Width : 720 pixels
Height : 408 pixels
Display aspect ratio : 16/9
Frame rate : 25.000 fps
Resolution : 8 bits
Colorimetry : 4:2:0
Scan type : Progressive
Bits/(Pixel*Frame) : 0.255
Stream size : 1.57 GiB (80%)
Writing library : XviD 1.1.2 (UTC 2006-11-01)

Format : AC-3
Format/Info : Audio Coding 3
Codec ID : 2000
Duration : 2h 0mn
Bit rate mode : Constant
Bit rate : 448 Kbps
Channel(s) : 6 channels
Channel positions : Front: L C R, Rear: L R, LFE
Sampling rate : 48.0 KHz
Stream size : 385 MiB (19%)
Alignment : Split accross interleaves
Interleave, duration : 40 ms (1.00 video frame)
Interleave, preload duration : 500 ms

related torrents

Torrent name

health leech seeds Size

comments (0)

Main Menu