Horror

Watchers (1988) DVDRip MP3 ENG

  • Download 5x Faster
  • Download torrent
  • Direct Download
  • Rate this torrent +  |  -
Watchers (1988) DVDRip MP3 ENG

Anonymous and Free Direct Download


Torrent info

Name:Watchers (1988) DVDRip MP3 ENG

Total Size: 702.46 MB

Magnet: Magnet Link

Seeds: 0

Leechers: 0

Stream: Watch Online @ Movie4u

Last Updated: 2017-09-21 23:43:35 (Update Now)

Torrent added: 2008-09-18 19:43:51



VPN For Torrents

Torrent Files List


Tracked_by_Demonoid_com.txt (Size: 702.46 MB) (Files: 3)

 Tracked_by_Demonoid_com.txt

0.03 KB

 Watchers (1988) - DVDRip - MP3 - ENG.avi

702.45 MB

 Watchers (1988) - DVDRip - MP3 - ENG.nfo

11.37 KB
 

tracker

leech seeds
 

Torrent description

Watchers

IMDB: http://www.imdb.com/title/tt0096425/
User Rating: 4.6/10 (851 votes)
Release Date: December 1988 (USA)
Genre: Action | Horror | Sci-Fi
Tagline: Secret experiment, Unstoppable monster, Deadly mistake...

Plot:
Based on a novel by Dean Koontz. A boy takes in a stray dog, later finding out that its
an ultra-intelligent runaway from a genetic research lab. Unknow to him, the dog is being
stalked by another escaped creature thats not quite so friendly.

Cast:

Michael Ironside ... Lem Johnson
Christopher Cary ... T.V. Newscaster (as Christopher Carey)
Graeme Campbell ... Man on Boat
Dan O'Dowd ... First T.V. Reporter
Lala Sloatman ... Tracey (as Lala)
Corey Haim ... Travis Cornell
Dale Wilson ... Bill Keeshan
Blu Mankuma ... Cliff
Colleen Winton ... Deputy Porter
Duncan Fraser ... Sheriff Walt Gaines
Barbara Williams ... Nora Cornell
Lou Bollo ... Man by Stream
Jason Priestley ... Boy on Bike
Matt Hill ... Boy on Bike
Andrew Morkey ... Boy on Bike (as Andrew Markey)



Screenshots:

Watchers (1988)   DVDRip   MP3   ENG preview 0
Watchers (1988)   DVDRip   MP3   ENG preview 1
Watchers (1988)   DVDRip   MP3   ENG preview 2
Watchers (1988)   DVDRip   MP3   ENG preview 3


General
Complete name : Watchers (1988) - DVDRip - MP3 - ENG.avi
Format : AVI
Source : PAL DVD
File size : 702 MiB
Duration : 1h 26mn
Overal bit rate : 1129 Kbps
IAS1 : English

Video
Format : MPEG-4 Visual
Codec ID : XviD
Duration : 1h 26mn
Bit rate : 994 Kbps
Width : 608 pixels
Height : 336 pixels
Display aspect ratio : 16/9
Frame rate : 25.000 fps
Resolution : 8 bits
Colorimetry : 4:2:0
Scan type : Progressive
Bits/(Pixel*Frame) : 0.195
Stream size : 618 MiB (88%)

Audio
Format : MPEG Audio
Format version : Version 1
Format profile : Layer 3
Codec ID : 55
Codec ID/Hint : MP3
Duration : 1h 26mn
Bit rate mode : Constant
Bit rate : 128 Kbps
Channel(s) : 2 channels
Sampling rate : 48.0 KHz
Resolution : 16 bits
Stream size : 79.6 MiB (11%)
Writing library : LAME3.97
Encoding settings : CBR



Trackers:
http://inferno.demonoid.com:3395/announce
http://www.torrent-downloads.to:5869/announce
http://open.tracker.thepiratebay.org:80/announce
http://tpb.tracker.thepiratebay.org:80/announce
http://vip.tracker.thepiratebay.org/announce


Info Hash: 373BD538BB4061E098152847E3AB8B0B7137B4A1

related torrents

Torrent name

health leech seeds Size
 


comments (0)

Main Menu