DVD / Film Extras

G O C A FDschihad in der City

  • Download 5x Faster
  • Download torrent
  • Direct Download
  • Rate this torrent +  |  -
G O C A FDschihad in der City

Free and Direct Download with Usenet 300GB+ free


Torrent info

Name:G O C A FDschihad in der City

Total Size: 1.42 GB

Magnet: Magnet Link

Seeds: 1

Leechers: 1

Stream: Watch Online @ Movie4u

Last Updated: 2010-12-16 19:35:58 (Update Now)

Torrent added: 2008-09-18 12:39:52




Torrent Files List


Dschihad in der City.part01.rar (Size: 1.42 GB) (Files: 16)

 Dschihad in der City.part01.rar

95.78 MB

 Dschihad in der City.part02.rar

95.78 MB

 Dschihad in der City.part03.rar

95.78 MB

 Dschihad in der City.part04.rar

95.78 MB

 Dschihad in der City.part05.rar

95.78 MB

 Dschihad in der City.part06.rar

95.78 MB

 Dschihad in der City.part07.rar

95.78 MB

 Dschihad in der City.part08.rar

95.78 MB

 Dschihad in der City.part09.rar

95.78 MB

 Dschihad in der City.part10.rar

95.78 MB

 Dschihad in der City.part11.rar

95.78 MB

 Dschihad in der City.part12.rar

95.78 MB

 Dschihad in der City.part13.rar

95.78 MB

 Dschihad in der City.part14.rar

95.78 MB

 Dschihad in der City.part15.rar

95.78 MB

 Dschihad in der City.part16.rar

19.22 MB
 

Announce URL: http://gocaf.selfip.net/announce.php

Torrent description

Show/Hide

*******************************************************************************
Dschihad.in.der.City.German.TVRip.DivX
*******************************************************************************

-------------------------------------------------------------------------------
Film Beschreibung
-------------------------------------------------------------------------------

Die Geschwister Sohail und Nasima, Kinder einer pakistanischen Einwandererfamilie, stehen im Klima der verschärften Anti-Terror-Gesetze und einer islamfeindlichen Stimmung in Großbritannien vor der Frage: Bin ich Brite oder Moslem? Sohail, stolz darauf ein Brite zu sein, wird vom Inlandsgeheimdienst angeheuert und muss bald gegen seine eigenen Freunde ermitteln ...

Die Geschwister Sohail und Nasima, Kinder einer pakistanischen Einwandererfamilie, sind in Bradford, Nordengland, geboren und aufgewachsen. Obwohl ihre Eltern sie muslimisch erzogen haben, führen Bruder und Schwester ein modernes Leben. Als sich jedoch durch die Anti-Terror-Gesetze und eine islamfeindliche Grundhaltung der Briten das Klima in Großbritannien verschärft, stehen beide vor der Frage: Bin ich Brite oder Moslem?
Sohail will sich in jeder Hinsicht der modernen britischen Lebenskultur anpassen. Der ehrgeizige Jurastudent ist stolz darauf, ein Brite zu sein. Gleichzeitig ist er sich aber auch seiner Herkunft bewusst: Regelmig trifft er seinen muslimischen Jugendfreund Sajid und besucht die Moschee. Doch der antibritische Diskurs seiner Umgebung in Bradford schockiert ihn, und so trifft Sohail heimlich die Entscheidung, für den britischen Inlandsgeheimdienst MI5 zu arbeiten. Seine erste Aufgabe besteht darin, das Netzwerk der Terroristen, die für die Londoner Bombenanschläge am 7. Juli 2005 verantwortlich waren, aufzuspüren. Schon bald führen ihn die Ermittlungen in seine Heimatstadt Bradford. Nach und nach wird Sohail bewusst, dass seine alten Freunde und besonders sein bester Freund Sajid vom Geheimdienst verdächtigt werden, terroristischen Vereinigungen anzugehören.
Die Ereignisse überschlagen sich, als Nasimas beste Freundin Sabia unter polizeiliche Bewachung gestellt wird und sich bald darauf das Leben nimmt. Sohails Schwester Nasima gesteht ihren Eltern daraufhin, dass sie mit einem schwarzen, nicht muslimischen Kommilitonen zusammen ist und verschwindet wenig später nach Pakistan. Dort soll Nasima mit einem Muslimen verheiratet werden. Sohail folgt seiner Schwester in das Heimatland seiner Eltern, aber er kommt zu spät ...


Mein Tipp: Ein sehr schöner, nachdenklich stimmender Film, der gerade in Bezug auf die sehr aktuelle Thematik unseren Horizont unheimlich erweitert.

Viel Spaß damit!

http://www.spiegel.de/kultur/gesellschaft/0,1518,576506,00.html">http://anonym.to/?http://www.spiegel.de/kultur/gesellschaft/0,1518,576506,00.html

-------------------------------------------------------------------------------
General Information
-------------------------------------------------------------------------------

Gesamte Bitrate : 929 Kbps

Video
Format : MPEG-4 Visual
Format profile : Simple@L1
Format settings, BVOP : Nein
Format settings, QPel : Nein
Format settings, GMC : No warppoints
Format settings, Matrix : Default
Codec ID : DX50
Codec ID/Hint : DivX 5
Duration : 1h 45min
Bitrate : 789 Kbps
Breite : 512 Pixel
Höhe : 384 Pixel
Bildseitenverhältnis : 16/9
Bildwiederholungsrate : 25,000 FPS
Auflösung : 24 bits
Colorimetry : 4:2:0
Scan type : Progressive
Bits/(Pixel*Frame) : 0.161
Stream size : 597 MiB (85)
verwendete Encoder-Bibliothek : Lavc51.57.2

Audio
Format : MPEG Audio
Format version : Version 1
Format profile : Layer 3
Codec ID : 55
Codec ID/Hint : MP3
Bitraten-Modus : Constant
Bitrate : 128 Kbps
Kanäle : 2 Kanäle
Samplingrate : 44,1 KHz
Auflösung : 16 bits
Stream size : 96,8 MiB (14)
Alignment : Aligned on interleaves
Interleave, duration : 26 ms (0,65 video frame)

related torrents

Torrent name

health leech seeds Size
 

comments (0)

Main Menu