Horror

Shocker DVDRipKooKooh33t

  • Download 5x Faster
  • Download torrent
  • Direct Download
  • Rate this torrent +  |  -
Shocker DVDRipKooKooh33t

Anonymous and free Direct Download 300GB+


Torrent info

Name:Shocker DVDRipKooKooh33t

Total Size: 918.06 MB

Magnet: Magnet Link

Seeds: 0

Leechers: 0

Stream: Watch Online @ Movie4u

Last Updated: 2017-05-09 00:08:12 (Update Now)

Torrent added: 2008-06-28 03:33:58



VPN For Torrents

Torrent Files List


KooKoo.txt (Size: 918.06 MB) (Files: 8)

 KooKoo.txt

9.40 KB

 Movie Info.txt

2.30 KB

 Screenshots

  thumbs20080627171933.bmp

1.12 MB

 Shocker [DVDRip][XviD][KooKoo][h33t].avi

904.57 MB

 Subtitles

  Shocker [DVDRip][XviD][KooKoo][h33t].idx

203.20 KB

  Shocker [DVDRip][XviD][KooKoo][h33t].sub

12.17 MB

 Torrent downloaded from Demonoid.com.txt

0.05 KB

 tracked_by_h33t_com.txt

0.02 KB
 

tracker

leech seeds
 

Torrent description

Shocker (1989)
http://www.imdb.com/title/tt0098320/


General
Complete name : Shocker [DVDRip][XviD][KooKoo][h33t].avi
Format : AVI
Format/Info : Audio Video Interleave
File size : 905 MiB
Duration : 1h 49mn
Overal bit rate : 1155 Kbps
Movie name : Shocker
Director : Ripped By KooKoo
Genre : Horror
Law rating : Unrated
Writing application : Lavf51.19.0
Comment : Includes English And Spanish Subtitles
IMIU : http://www.imdb.com/title/tt0098320/
Product : DVD_VOLUME

Video
Format : MPEG-4 Visual
Format profile : [email protected]
Format settings, BVOP : No
Format settings, QPel : No
Format settings, GMC : No warppoints
Format settings, Matrix : Default
Codec ID : XVID
Codec ID/Hint : XviD
Duration : 1h 49mn
Bit rate : 1014 Kbps
Width : 608 pixels
Height : 332 pixels
Display aspect ratio : 16/9
Frame rate : 23.976 fps
Resolution : 8 bits
Colorimetry : 4:2:0
Scan type : Progressive
Bits/(Pixel*Frame) : 0.209
Stream size : 794 MiB
Writing library : XviD 1.1.2 (UTC 2006-11-01)

Audio
Format : MPEG Audio
Format version : Version 1
Format profile : Layer 3
Codec ID : 55
Codec ID/Hint : MP3
Duration : 1h 49mn
Bit rate mode : Constant
Bit rate : 128 Kbps
Channel(s) : 2 channels
Sampling rate : 48.0 KHz
Resolution : 16 bits
Stream size : 100 MiB
Writing library : LAME3.97
Language : english

related torrents

Torrent name

health leech seeds Size

Shocker avi

0 0 1.37 GB 0
 


comments (0)

Main Menu