Blues

EAC FLAC Janis Joplin At Woodstock (1969)Colombo bt org

  • Download 5x Faster
  • Download torrent
  • Direct Download
  • Rate this torrent +  |  -
EAC FLAC Janis Joplin At Woodstock (1969)Colombo bt org

Anonymous and Direct Download 300GB+ free


Torrent info

Name:EAC FLAC Janis Joplin At Woodstock (1969)Colombo bt org

Total Size: 317.05 MB

Magnet: Magnet Link

Seeds: 0

Leechers: 0

Stream: Watch Online @ Movie4u

Last Updated: 2011-03-22 06:46:59 (Update Now)

Torrent added: 2008-07-06 09:42:39




Torrent Files List


01 - Raise Your Hand .flac (Size: 317.05 MB) (Files: 25)

 01 - Raise Your Hand .flac

28.14 MB

 02 - As Good As You've Been To This World .flac

32.52 MB

 03 - To Love Somebody .flac

26.37 MB

 04 - Summertime .flac

26.74 MB

 05 - Try (Just A Little Bit Harder) .flac

21.32 MB

 06 - Cozmic Blues .flac

26.54 MB

 07 - Can Turn You Loose .flac

44.26 MB

 08 - Work Me Lord .flac

39.80 MB

 09 - Piece Of My Heart .flac

22.08 MB

 10 - Ball And Chain .flac

35.06 MB

 artwork

  1-4.jpg

5.51 MB

  2-3.jpg

5.10 MB

  back in is blank.txt

0.00 KB

  back out.jpg

1.26 MB

  CD.jpg

2.31 MB

 extras

  ffp.txt

0.63 KB

  Janis Joplin - At Woodstock (.flac).md5

0.72 KB

  Janis Joplin - At Woodstock (.wav & rip files).md5

1.00 KB

  Janis Joplin - At Woodstock - info.nfo

2.52 KB

  Janis Joplin - Live At Woodstock (.wav).m3u

0.76 KB

  Janis Joplin - Live At Woodstock.log

3.53 KB

  Live At Woodstock (non compliant).cue

1.56 KB

  Live At Woodstock.cue

1.56 KB

 Janis Joplin - At Woodstock.m3u

0.78 KB

 thumb.jpg

26.07 KB
 

Announce URL: http://tracker.publicbt.com/announce

Torrent description


Artist...............: Janis Joplin
Album................: At Woodstock
Genre................: rock/blues
Source...............: Silver CD - Jewel Case
Year.................: Recorded: 1969 - Released: 1993
Ripper...............: Exact Audio Copy (Secure mode) & LITE-ON CD-RW SOHR-5238S
Codec................: Free Lossless Audio Codec (FLAC)
Version..............: reference libFLAC 1.2.1 20070917
Quality..............: Lossless, (avg. compression: 93 %)
Channels.............: Stereo / 44100 HZ / 16 Bit
Tags.................: VorbisComment
Information..........: Label: ITM - cat# 96007
Included.............: NFO, MD5, FFP, M3U, LOG, CUE
Covers...............: full scans 300 dpi

TRACKLIST
1. (00:05:29) - Raise Your Hand
2. (00:06:12) - As Good As You've Been To This World
3. (00:04:58) - To Love Somebody
4. (00:05:07) - Summertime
5. (00:04:00) - Try (Just A Little Bit Harder)
6. (00:05:04) - Cozmic Blues
7. (00:08:31) - Can Turn You Loose
8. (00:07:39) - Work Me Lord
9. (00:04:04) - Piece Of My Heart
10. (00:06:26) - Ball And Chain

Playing Time.........: 00:57:29
Total Size...........: 302,83 MB


EAC,NO C2,Secure mode,disable cache,full scans

---------------------------------------------------------------------------------------------------
Exact Audio Copy V0.99 prebeta 4 from 23. January 2008

EAC extraction logfile from 25. May 2008, 20:20

Janis Joplin / Live At Woodstock

Used drive : LITE-ON CD-RW SOHR-5238S Adapter: 1 ID: 1

Read mode : Secure
Utilize accurate stream : Yes
Defeat audio cache : Yes
Make use of C2 pointers : No

Read offset correction : 6
Overread into Lead-In and Lead-Out : No
Fill up missing offset samples with silence : Yes
Delete leading and trailing silent blocks : No
Null samples used in CRC calculations : Yes
Used interface : Installed external ASPI interface
Gap handling : Appended to previous track

Used output format : Internal WAV Routines
Sample format : 44.100 Hz; 16 Bit; Stereo

Track 1

Filename I:\EAC\Woodstock\01 - Raise Your Hand .wav

Pre-gap length 0:00:02.00

Peak level 77.8 %
Track quality 99.9 %
Test CRC 56C7F12D
Copy CRC 56C7F12D
Copy OK

Track 2

Filename I:\EAC\Woodstock\02 - As Good As You've Been To This World .wav

Peak level 65.3 %
Track quality 100.0 %
Test CRC 9BD24236
Copy CRC 9BD24236
Copy OK

Track 3

Filename I:\EAC\Woodstock\03 - To Love Somebody .wav

Peak level 80.7 %
Track quality 99.9 %
Test CRC A33C7929
Copy CRC A33C7929
Copy OK

Track 4

Filename I:\EAC\Woodstock\04 - Summertime .wav

Peak level 75.0 %
Track quality 100.0 %
Test CRC 68895D0E
Copy CRC 68895D0E
Copy OK

Track 5

Filename I:\EAC\Woodstock\05 - Try (Just A Little Bit Harder) .wav

Peak level 91.4 %
Track quality 100.0 %
Test CRC 2A0FB494
Copy CRC 2A0FB494
Copy OK

Track 6

Filename I:\EAC\Woodstock\06 - Cozmic Blues .wav

Peak level 87.4 %
Track quality 100.0 %
Test CRC 165075FB
Copy CRC 165075FB
Copy OK

Track 7

Filename I:\EAC\Woodstock\07 - Can Turn You Loose .wav

Peak level 79.7 %
Track quality 99.9 %
Test CRC D5CF61A2
Copy CRC D5CF61A2
Copy OK

Track 8

Filename I:\EAC\Woodstock\08 - Work Me Lord .wav

Peak level 78.4 %
Track quality 99.9 %
Test CRC F5329FAE
Copy CRC F5329FAE
Copy OK

Track 9

Filename I:\EAC\Woodstock\09 - Piece Of My Heart .wav

Peak level 58.3 %
Track quality 100.0 %
Test CRC 5163CAF3
Copy CRC 5163CAF3
Copy OK

Track 10

Filename I:\EAC\Woodstock\10 - Ball And Chain .wav

Peak level 100.0 %
Track quality 99.9 %
Test CRC 84875373
Copy CRC 84875373
Copy OK

No errors occurred

End of status report
-----------------------------------------------------------------------------------------------------------

More Info: http://colombo-bt.org/index.php?topic=79780.0

related torrents

Torrent name

health leech seeds Size
 


comments (0)

Main Menu