Sci-Fi

D A R Y L (1985) DVDRip MP3 ENG

  • Download 5x Faster
  • Download torrent
  • Direct Download
  • Rate this torrent +  |  -
D A R Y L (1985) DVDRip MP3 ENG

Download FREE And Anonymously


Torrent info

Name:D A R Y L (1985) DVDRip MP3 ENG

Total Size: 706.84 MB

Magnet: Magnet Link

Seeds: 0

Leechers: 0

Stream: Watch Full Movie @ Movie4u

Last Updated: 2016-07-23 00:56:05 (Update Now)

Torrent added: 2008-09-17 01:44:08



VPN For Torrents

Torrent Files List


D.A.R.Y.L. (1985) - DVDRip - MP3 - ENG.avi (Size: 706.84 MB) (Files: 3)

 D.A.R.Y.L. (1985) - DVDRip - MP3 - ENG.avi

706.83 MB

 D.A.R.Y.L. (1985) - DVDRip - MP3 - ENG.nfo

11.52 KB

 Tracked_by_Demonoid_com.txt

0.03 KB
 

Announce URL:

Torrent description

D.A.R.Y.L.

IMDB: http://www.imdb.com/title/tt0088979/
User Rating: 5.5/10 3,041 votes
Release Date: 14 June 1985 (USA)
Genre: Family | Sci-Fi
Tagline: Becoming human was not part of the plan. Now they want to terminate him.

Plot:
A young boy is found wandering without any memory of who he is. A family takes him in and
begin to look for clues to help him find his way home. In the meantime, they notice that the
boy seems to have certain special abilities, not usually found in kids his age, or
even fully-grown adults.

Cast:
Mary Beth Hurt ... Joyce Richardson
Michael McKean ... Andy Richardson
Kathryn Walker ... Dr. Ellen Lamb
Colleen Camp ... Elaine Fox
Josef Sommer ... Dr. Jeffrey Stewart
Ron Frazier ... General Graycliffe
Steve Ryan ... Howie Fox
David Wohl ... Mr. Nesbitt
Danny Corkill ... Turtle Fox
Amy Linker ... Sherie Lee Fox
Barret Oliver ... Daryl
Ed Grady ... Mr. Bergen (as Ed L. Grady)
Tucker McGuire ... Mrs. Bergen
Richard Hammatt ... Dr. Mulligan
Charlie Gudger ... Basketball Kid #1


Screenshots:

D A R Y L  (1985)   DVDRip   MP3   ENG preview 0
D A R Y L  (1985)   DVDRip   MP3   ENG preview 1
D A R Y L  (1985)   DVDRip   MP3   ENG preview 2
D A R Y L  (1985)   DVDRip   MP3   ENG preview 3



General
Complete name : D.A.R.Y.L. (1985) - DVDRip - MP3 - ENG.avi
Format : AVI
Source : PAL DVD
File size : 707 MiB
Duration : 1h 36mn
Overal bit rate : 1029 Kbps
IAS1 : English

Video
Format : MPEG-4 Visual
Codec ID : XviD
Duration : 1h 36mn
Bit rate : 894 Kbps
Width : 608 pixels
Height : 256 pixels
Display aspect ratio : 2.35
Frame rate : 25.000 fps
Resolution : 8 bits
Colorimetry : 4:2:0
Scan type : Progressive
Bits/(Pixel*Frame) : 0.230
Stream size : 614 MiB (87%)

Audio
Format : MPEG Audio
Format version : Version 1
Format profile : Layer 3
Codec ID : 55
Codec ID/Hint : MP3
Duration : 1h 36mn
Bit rate mode : Constant
Bit rate : 128 Kbps
Channel(s) : 2 channels
Sampling rate : 48.0 KHz
Resolution : 16 bits
Stream size : 87.9 MiB (12%)
Writing library : LAME3.97
Encoding settings : CBR



Trackers:

http://inferno.demonoid.com:3395/announce
http://www.torrent-downloads.to:5869/announce
http://open.tracker.thepiratebay.org:80/announce
http://tpb.tracker.thepiratebay.org:80/announce
http://vip.tracker.thepiratebay.org/announce

Info Hash: 12F03CED8D65F8E71AB097EDDA615B37D97488AA

related torrents

Torrent name

health leech seeds Size
 


comments (0)

Main Menu

 

script data-cfasync="false" src="//d2ghscazvn398x.cloudfront.net/?cshgd=690275">