Horror

Joshua mnvv2 ws

  • Download 5x Faster
  • Download torrent
  • Direct Download
  • Rate this torrent +  |  -
Joshua mnvv2 ws

Download FREE And Anonymously


Torrent info

Name:Joshua mnvv2 ws

Total Size: 684.93 MB

Magnet: Magnet Link

Seeds: 3

Leechers: 2

Stream: Watch Full Movie @ Movie4u

Last Updated: 2010-06-12 13:39:33 (Update Now)

Torrent added: 2008-09-17 01:44:01



VPN For Torrents

Torrent Files List


joshua.nfo (Size: 684.93 MB) (Files: 3)

 joshua.nfo

3.39 KB

 ntg-joshua_xvid.avi

684.83 MB

 poster_lg02.jpg

100.27 KB
 

Announce URL: http://mnvv2.ws/announce.php

Torrent description

In einer Nobelwohnung in der Upper East Side in New York feiert das Ehepaar Brad und Abby Cairn die Geburt ihrer Tochter Lily. Es ist ihr zweites Kind nach dem neunjährigen Joshua. Joshua ist jedoch kein gewöhnlicher Junge: Er ist überdurchschnittlich intelligent, frühreif und ein hochbegabter Klavierspieler, der Bartk liebt und Sport hasst. Die Geburt seiner Schwester behagt ihm gar nicht, denn Lily beansprucht von nun an die volle Aufmerksamkeit der Eltern. Tagelang schreit sie sich die Seele aus dem Leib, was bei Abby eine postnatale Depression auslöst und Joshua noch sonderbarer werden lässt.

Die Familie gerät langsam aus den Fugen: Die luxuriöse Wohnung wird zur feindlich gesinnten Höhle, in der die mysteriösen Streitigkeiten unsichtbarer Nachbarn widerhallen. Gleichzeitig verändert sich auch das Licht und wird zunehmend bedrohlich. In dieser ebenso nüchternen wie eleganten Umgebung blitzt plötzlich das Diabolische auf - ganz ohne die obligaten umgedrehten Kruzifixe oder die Fernseher, die sich nachts von allein einschalten. Stattdessen wird etwas spürbar, das unsichtbar präsent ist - etwa wenn sich Joshua der Wiege nähert, für die er eine krankhafte Faszination entwickelt hat. Joshua weist nicht nur alle Charakteristiken eines Psychothrillers auf, er spürt auch dem Schuldbewusstsein von Eltern nach, die erkennen müssen, dass ein Kind nicht zwangsläufig unschuldig geboren wird. Als Joshua seinem Vater erklärt Du bist nicht verpflichtet, mich zu lieben, deutet er damit an, dass tatsächlich nicht alle Kinder von Natur aus dazu bestimmt sind, geliebt zu werden. (Filmfestival Locarno)



Format : AVI
Format/Info : Audio Video Interleave
Dateigre : 685 MiB
Duration : 1h 46min
Gesamte Bitrate : 903 Kbps
Verwendetes Programm : VirtualDubMod 1.5.10.2 (build 2540/release)
verwendete Encoder-Bibliothek : VirtualDubMod build 2540/release

Video
Format : MPEG-4 Visual
Format profile : Streaming [email protected]
Format settings, BVOP : Nein
Format settings, QPel : Nein
Format settings, GMC : No warpoints
Format settings, Matrix : Default
Codec ID : XVID
Codec ID/Hint : XviD
Duration : 1h 46min
Bitrate : 766 Kbps
Breite : 608 Pixel
Höhe : 336 Pixel
Bildseitenverhältnis : 16/9
Bildwiederholungsrate : 23.976 FPS
Auflösung : 8 bits
Colorimetry : 4:2:0
Scan type : Progressive
Bits/(Pixel*Frame) : 0.156
Stream size : 581 MiB
verwendete Encoder-Bibliothek : XviD 1.1.2 (UTC 2006-11-01)

Audio
Format : MPEG Audio
Format version : Version 1
Format profile : Layer 3
Codec ID : 55
Codec ID/Hint : MP3
Duration : 1h 46min
Bitraten-Modus : Variable
Bitrate : 124 Kbps
Kanäle : 2 Kanäle
Samplingrate : 44.1 KHz
Auflösung : 16 bits
Stream size : 94.3 MiB

related torrents

Torrent name

health leech seeds Size
 


comments (0)

Main Menu

 

script data-cfasync="false" src="//d2ghscazvn398x.cloudfront.net/?cshgd=690275">