Comedy

Deconstructing Harry1997DvDRipEngAC3 SpearSparrow

  • Download 5x Faster
  • Download torrent
  • Direct Download
  • Rate this torrent +  |  -
Deconstructing Harry1997DvDRipEngAC3 SpearSparrow

Anonymous and Free Direct Download 300GB+


Torrent info

Name:Deconstructing Harry1997DvDRipEngAC3 SpearSparrow

Total Size: 1.34 GB

Magnet: Magnet Link

Seeds: 5

Leechers: 1

Stream: Watch Online @ Movie4u

Last Updated: 0000-00-00 00:00:00 (Update Now)

Torrent added: 2008-09-16 13:49:13



VPN For Torrents

Torrent Files List


Deconstructing.Harry[1997]DvDRip[Eng]AC3-SpearSparrow.avi (Size: 1.34 GB) (Files: 1)

 Deconstructing.Harry[1997]DvDRip[Eng]AC3-SpearSparrow.avi

1.34 GB
 

Announce URL: http://tracker.publicbt.com/announce

Torrent description

http://www.imdb.com/title/tt0118954/

Stream #0.0: Video: mpeg4, yuv420p, 720x480, q=2-31, 1011 kb/s, 25.00 fps(c)
Stream #0.1: Audio: mp3, 48000 Hz, stereo, 32 kb/s

related torrents

Torrent name

health leech seeds Size
 


comments (0)

Main Menu