Pop

LOSSLESS FLACPaulina Rubio Paulina 2000tntvillage scambioetico

  • Download 5x Faster
  • Download torrent
  • Direct Download
  • Rate this torrent +  |  -
LOSSLESS FLACPaulina Rubio Paulina 2000tntvillage scambioetico

Anonymous and Direct Download 300GB+ free


Torrent info

Name:LOSSLESS FLACPaulina Rubio Paulina 2000tntvillage scambioetico

Total Size: 343.85 MB

Magnet: Magnet Link

Seeds: 0

Leechers: 1

Stream: Watch Online @ Movie4u

Last Updated: 2010-03-06 15:08:47 (Update Now)

Torrent added: 2009-08-17 00:00:00




Torrent Files List


back.jpg (Size: 343.85 MB) (Files: 6)

 back.jpg

365.11 KB

 Campaign for legal sustenance.txt

1.36 KB

 front.jpg

602.98 KB

 Paulina Rubio - Paulina.cue

1.82 KB

 Paulina Rubio - Paulina.flac

342.90 MB

 Paulina Rubio - Paulina.log

2.73 KB
 

Announce URL: http://tracker.tntvillage.scambioetico.org:2710/announce

Torrent description

[::Dati Album::]
Titolo: Paulina
Anno: 2000
Genere: Pop/Latin
Etichetta: Universal Music Mexico
Fonte: CD originale
Covers: Incluse

[::Tracklist::]

01. Lo Haré Por Ti
02. El Ultimo Adiós
03. Tal Vez,Quizas
04. Y Yo Sigo Aqui
05. Sin Aire
06. Tan Sola
07. Sexi Dance
08. Cancún Y Yo
09. Mirame A Los Ojos
10. Yo No Soy Esa Mujer
11. Vive El Verano
12. Baby Paulina

Exact Audio Copy V0.99 prebeta 3 from 28. July 2007

EAC extraction logfile from 4. September 2008, 23:56

Paulina Rubio / Paulina

Used drive : TSSTcorpCDDVDW TS-L632H Adapter: 1 ID: 0

Read mode : Secure
Utilize accurate stream : Yes
Defeat audio cache : Yes
Make use of C2 pointers : No

Read offset correction : 6
Overread into Lead-In and Lead-Out : No
Fill up missing offset samples with silence : Yes
Delete leading and trailing silent blocks : No
Null samples used in CRC calculations : Yes
Used interface : Native Win32 interface for Win NT & 2000

Used output format : User Defined Encoder
Selected bitrate : 1024 kBit/s
Quality : High
Add ID3 tag : No
Command line compressor : C:\Program Files\Exact Audio Copy\FLAC\FLAC.EXE
Additional command line options : -8 -V -T "ARTIST=%a" -T "TITLE=%t" -T "ALBUM=%g" -T "DATE=%y" -T "TRACKNUMBER=%n" -T "GENRE=%m" -T "COMMENT=%e" %s -o %d


TOC of the extracted CD

Track | Start | Length | Start sector | End sector
---------------------------------------------------------
1 | 0:00.00 | 4:42.40 | 0 | 21189
2 | 4:42.40 | 4:46.55 | 21190 | 42694
3 | 9:29.20 | 4:35.35 | 42695 | 63354
4 | 14:04.55 | 4:15.55 | 63355 | 82534
5 | 18:20.35 | 4:06.17 | 82535 | 101001
6 | 22:26.52 | 5:23.68 | 101002 | 125294
7 | 27:50.45 | 5:04.20 | 125295 | 148114
8 | 32:54.65 | 3:49.52 | 148115 | 165341
9 | 36:44.42 | 3:57.40 | 165342 | 183156
10 | 40:42.07 | 3:45.48 | 183157 | 200079
11 | 44:27.55 | 4:12.70 | 200080 | 219049
12 | 48:40.50 | 0:16.25 | 219050 | 220274


Range status and errors

Selected range

Filename C:\Users\Roberto\Desktop\Paulina Rubio - Paulina.wav

Peak level 98.8 %
Range quality 100.0 %
Test CRC 6EEAEB77
Copy CRC 6EEAEB77
Copy OK

No errors occurred


AccurateRip summary

Track 1 not present in database
Track 2 not present in database
Track 3 not present in database
Track 4 not present in database
Track 5 not present in database
Track 6 not present in database
Track 7 not present in database
Track 8 not present in database
Track 9 not present in database
Track 10 not present in database
Track 11 not present in database
Track 12 not present in database

None of the tracks are present in the AccurateRip database

End of status report

related torrents

Torrent name

health leech seeds Size
 


comments (0)

Main Menu