Comedy

Get Smart r5 x 264 2008 Noir

  • Download 5x Faster
  • Download torrent
  • Direct Download
  • Rate this torrent +  |  -
Get Smart r5 x 264 2008 Noir

Anonymous and Free Direct Download 300GB+


Torrent info

Name:Get Smart r5 x 264 2008 Noir

Total Size: 713.54 MB

Magnet: Magnet Link

Seeds: 0

Leechers: 0

Stream: Watch Online @ Movie4u

Last Updated: 2009-11-28 17:45:48 (Update Now)

Torrent added: 2008-09-16 07:47:02



VPN For Torrents

Torrent Files List


g-sm.avi (Size: 713.54 MB) (Files: 3)

 g-sm.avi

713.54 MB

 g-sm.sfv

3.22 KB

 Noir.nfo

5.41 KB
 

Announce URL: http://p2p.arenabg.com:2710/20d8810e133db8ab7a44dba602420ce4/announce

Torrent description


********************
* Get Smart (2008) *
********************

________________________
General Information |
________________________|
_______________________________________________________________
Type : Movie |
Format : AVI |
Format/Info : Audio Video Interleave |
File size : 714 MiB |
Duration : 1h 40mn |
Subtitles : None |
Source : Dvd R5 PAL |
Genre : Action | Comedy | Thriller |
IMDB Link : http://www.imdb.com/title/tt0425061/ |
Rating : 7.3/10 |
_______________________________________________________________|

________________________________________________________________
Video
Format : AVC
Format/Info : Advanced Video Codec
Format profile : [email protected]
Format settings, CABAC : Yes
Format settings, ReFrames : 3 frames
Codec ID : H264
Duration : 1h 40mn
Bit rate : 850 Kbps
Width : 608 pixels
Height : 336 pixels
Display aspect ratio : 16/9
Frame rate : 25.000 fps
Resolution : 24 bits
Colorimetry : 4:2:0
Scan type : Progressive
Bits/(Pixel*Frame) : 0.166
Stream size : 614 MiB (86%)
Writing library : x264 core 58 svn-736bm
_______________________________________________________________
Audio
Format : MPEG Audio
Format version : Version 1
Format profile : Layer 3
Codec ID : 55
Codec ID/Hint : MP3
Duration : 1h 40mn
Bit rate mode : Constant
Bit rate : 128 Kbps
Minimum bit rate : 128 Kbps
Channel(s) : 2 channels
Sampling rate : 48.0 KHz
Resolution : 16 bits
Stream size : 92.5 MiB (13%)
Alignment : Aligned on interleaves
Interleave, duration : 40 ms (1.00 video frame)
Interleave, preload duration : 504 ms
Writing library : LAME3.97
Encoding settings : CBR

_______________________________________________________________

________________
Description |
________________|
_______________________________________________________________
Bungling secret agent Maxwell Smart, also known as Agent 86 for|
CONTROL, is on a mission to battle the forces of their evil |
crime nemesis known as KAOS with his more-competent partner |
Agent 99, (whose real name is never revealed) at his side. |
When the headquarters of U.S. spy agency Control is attacked |
and the identities of its agents compromised, the Chief has |
no choice but to promote his ever-eager analyst Maxwell Smart, |
who has always dreams of working in the field alongside |
stalwart superstar Agent 23. Smart will do whatever it takes |
to thwart the latest plot for world domination by KAOS. |
_______________________________________________________________|

related torrents

Torrent name

health leech seeds Size
 


comments (0)

Main Menu