Sci-Fi

Matrix DVDRip XviD MP3 German

  • Download 5x Faster
  • Download torrent
  • Direct Download
  • Rate this torrent +  |  -
Matrix DVDRip XviD MP3 German

Anonymous and Free Direct Download 300GB+


Torrent info

Name:Matrix DVDRip XviD MP3 German

Total Size: 1.08 GB

Magnet: Magnet Link

Seeds: 1

Leechers: 1

Stream: Watch Online @ Movie4u

Last Updated: 2010-05-29 01:53:20 (Update Now)

Torrent added: 2008-09-16 01:43:14



VPN For Torrents

Torrent Files List


Matrix (HQ) - Cover.jpg (Size: 1.08 GB) (Files: 5)

 Matrix (HQ) - Cover.jpg

1.45 MB

 Matrix (HQ) - DVD.jpg

486.90 KB

 Matrix - Cover.jpg

55.36 KB

 Matrix.DVDRip.XviD.MP3.German.Edelweis.NFO

3.27 KB

 Matrix.DVDRip.XviD.MP3.German.Edelweis.avi

1.07 GB
 

Announce URL: http://wreckingcrew.zapto.org/announce.php

Torrent description



...::::Edelweis-Group Presents::::...

Torrent Name: Matrix

-------------------------

--> Movie/Serie

Sprache: [X] Deutsch [ ] Englisch [ ] siehe Beschreibung

Quelle:
Video: [ ] HDTV [X] DVD [ ] TV/dTV [ ] TS [ ] Cam [ ] Sonstiges
Audio: [ ] AC3 [X] DVD [ ] TV/dTV [ ] LD [ ] Micro [ ] Sonstiges

Genre: Action/Sci-FI


Untertitel: keine

Extras: keine



-------------------------

Beschreibung:
Der Hacker Neo wird übers Internet von einer geheimnisvollen Untergrundorganisation kontaktiert.
Der Kopf der Gruppe - der gesuchte Terrorist Morpheus - weiht ihn in ein entsetzliches Geheimnis ein:

Die Reakutät, wie wir sie erleben, ist nur eine Scheinwelt. In Wahrheit werden die Menschen längst von einer
unheimlichen virtuellen Macht beherscht - der Matrix, deren Agenten Neo bereits im Visier haben ...


--
Note:

Matrix Reloaded und Matrix Revolution folgt in Kürze natürlich als Untouched DVD9, DVD5 und die handliche Xvid-AVI


-------------------------

Technische Details:
General
Complete name : Matrix.DVDRip.XviD.MP3.German.Edelweis.avi
Format : AVI
Format/Info : Audio Video Interleave
File size : 1.07 GiB
Duration : 2h 11mn
Overall bit rate : 1173 Kbps

Video
Format : MPEG-4 Visual
Format profile : Streaming [email protected]
Format settings, BVOP : Yes
Format settings, QPel : No
Format settings, GMC : No warppoints
Format settings, Matrix : Default
Muxing mode : Packet Bitstream
Codec ID : XVID
Codec ID/Hint : XviD
Duration : 2h 11mn
Bit rate : 971 Kbps
Width : 720 pixels
Height : 400 pixels
Display aspect ratio : 16/9
Frame rate : 25.000 fps
Resolution : 8 bits
Colorimetry : 4:2:0
Scan type : Progressive
Bits/(Pixel*Frame) : 0.135
Stream size : 911 MiB (83%)
Writing library : XviD 1.0.1 (UTC 2004-06-05)

Audio
Format : MPEG Audio
Format version : Version 1
Format profile : Layer 3
Codec ID : 55
Codec ID/Hint : MP3
Duration : 2h 11mn
Bit rate mode : Constant
Bit rate : 192 Kbps
Channel(s) : 2 channels
Sampling rate : 44.1 KHz
Resolution : 16 bits
Stream size : 180 MiB (16%)
Alignment : Split accross interleaves
Interleave, duration : 40 ms (1.00 video frame)
Writing library : LAMELAME_MAJOR_VERSI




--------------------------------------------

Note:

Happy Leeching und das Seeden nicht vergessen

Wuerdigt die Arbeit eines jeden Uppers mit einen Danke und/oder eines netten Kommentars.

Bin fuer Lob und Kritik stets offen.

--------------------------------------------



NFO File make with ZNFO Maker V6.0
(C)2008 by Edelweis-Group

related torrents

Torrent name

health leech seeds Size
 


comments (0)

Main Menu