Comedy

Club Dread Uncut (2004) DVDRip MP3 ENG

  • Download 5x Faster
  • Download torrent
  • Direct Download
  • Rate this torrent +  |  -
Club Dread Uncut (2004) DVDRip MP3 ENG

Anonymous and Free Direct Download 300GB+


Torrent info

Name:Club Dread Uncut (2004) DVDRip MP3 ENG

Total Size: 700.05 MB

Magnet: Magnet Link

Seeds: 60

Leechers: 5

Stream: Watch Online @ Movie4u

Last Updated: 0000-00-00 00:00:00 (Update Now)

Torrent added: 2008-09-15 21:40:49



VPN For Torrents

Torrent Files List


Club Dread Uncut (2004) - DVDRip - MP3 - ENG.avi (Size: 700.05 MB) (Files: 3)

 Club Dread Uncut (2004) - DVDRip - MP3 - ENG.avi

700.04 MB

 Club Dread Uncut (2004) - DVDRip - MP3 - ENG.nfo

11.30 KB

 Tracked_by_Demonoid_com.txt

0.03 KB
 

Announce URL: http://inferno.demonoid.com:3395/announce

Torrent description

Club Dread Uncut (2004)

IMDB: http://www.imdb.com/title/tt0331953
User Rating: 5.4/10 (9,841 votes)
Release Date: 2 July 2004 (UK)
Genre: Comedy | Thriller

Plot:
When a serial killer interrupts the fun at the swanky Coconut Pete's Coconut Beach Resort -- a
hedonistic island paradise for swingers --- it's up to the club's staff to stop the violence ...
or at least hide it!

Cast:
Elena Lyons ... Stacy
Dan Montgomery Jr. ... Rolo
Tanja Reichert ... Kellie
Nat Faxon ... Manny
Michael Weaver ... Roy
Kevin Heffernan ... Lars
Michael Yurchak ... Burke
Jordan Ladd ... Penelope
Brittany Daniel ... Jenny
Richard Perello ... Cliff
Steve Lemme ... Juan
Jay Chandrasekhar ... Putman
Paul Soter ... Dave
Erik Stolhanske ... Sam
Lindsay Price ... Yu


Screenshots:

Club Dread Uncut (2004)   DVDRip   MP3   ENG preview 0
Club Dread Uncut (2004)   DVDRip   MP3   ENG preview 1
Club Dread Uncut (2004)   DVDRip   MP3   ENG preview 2



General
Complete name : Club Dread Uncut.avi
Format : AVI
Source : PAL DVD
File size : 700 MiB
Duration : 1h 53mn
Overal bit rate : 865 Kbps
IAS1 : English

Video
Format : MPEG-4 Visual
Codec ID : XviD
Duration : 1h 53mn
Bit rate : 746 Kbps
Width : 608 pixels
Height : 272 pixels
Display aspect ratio : 2.25
Frame rate : 25.000 fps
Resolution : 8 bits
Colorimetry : 4:2:0
Scan type : Progressive
Bits/(Pixel*Frame) : 0.180
Stream size : 603 MiB (86%)

Audio
Format : MPEG Audio
Format version : Version 1
Format profile : Layer 3
Codec ID : 55
Codec ID/Hint : MP3
Duration : 1h 53mn
Bit rate mode : Constant
Bit rate : 112 Kbps
Channel(s) : 2 channels
Sampling rate : 44.1 KHz
Resolution : 16 bits
Stream size : 90.6 MiB (13%)
Writing library : LAME3.97
Encoding settings : CBR



Trackers:
http://inferno.demonoid.com:3395/announce
http://www.torrent-downloads.to:5869/announce
http://open.tracker.thepiratebay.org:80/announce
http://tpb.tracker.thepiratebay.org:80/announce
http://vip.tracker.thepiratebay.org/announce


Info Hash: F926A129A69F03649C7A9C52518B78A91D9B05F0

related torrents

Torrent name

health leech seeds Size
 


comments (0)

Main Menu