Action

The Incredible Hulk (2008) DvdRip WS Xvid {1337x} Noir

  • Download 5x Faster
  • Download torrent
  • Direct Download
  • Rate this torrent +  |  -
The Incredible Hulk (2008) DvdRip WS Xvid {1337x} Noir

Anonymous and Free Direct Download 300GB+


Torrent info

Name:The Incredible Hulk (2008) DvdRip WS Xvid {1337x} Noir

Total Size: 799.25 MB

Magnet: Magnet Link

Seeds: 3

Leechers: 5

Stream: Watch Online @ Movie4u

Last Updated: 2010-11-14 11:54:11 (Update Now)

Torrent added: 2008-09-15 17:46:23



VPN For Torrents

Torrent Files List


1337x.Org.txt (Size: 799.25 MB) (Files: 3)

 1337x.Org.txt

0.03 KB

 Noir.nfo

5.30 KB

 The Incredible Hulk (2008) [DvdRip] [WS] [Xvid] {1337x}-Noir.avi

799.24 MB
 

Announce URL: http://genesis.1337x.org:1337/announce

Torrent description

The Incredible Hulk (2008) DvdRip WS Xvid {1337x} Noir preview 0

Screenshots

The Incredible Hulk (2008) DvdRip WS Xvid {1337x} Noir preview 1

The Incredible Hulk (2008) DvdRip WS Xvid {1337x} Noir preview 2

The Incredible Hulk (2008) DvdRip WS Xvid {1337x} Noir preview 3

The Incredible Hulk (2008) DvdRip WS Xvid {1337x} Noir preview 4
[code]

▓▓▓▓▓▓
▓█████▓ ▓▓▓▓
▓██████▓ ▓▓███▓
▓▓██████▓ ▓████▓▓▓▓▓▓
██████▓ ▓██▒█▓▓███▓▓ ▓▓▓▓▓▓▓▓▓▓▓▓▓
▓██▒████▓ ▓██▒█▓██████▓▓███▓███▓███▓▓
▓██▒▒████▓ ▓██▒███▒▒▒▒██▓████████████▓
▓██▒▒▒▒███▓ ▓██▒██▒▒▒▒▒▒███▒▒▒██▒█▒▒▒██▓▓
▓██▒▒██▒▒██▓▓██▒██▒▒█▒▒▒▒███████▒▒▒▒▒▒██▓
▓██▒▒███▒▒██▓██▒██▒█▓█▒▒▒██▒▒▒██▒▒██▒▒▒█▓
▓██▒▒████▒▒████▒██▒█▓█▒▒▒██▒▒▒██▒▒███▒██▓
▓██▒▒█▓███▒▒███▒██▒▒█▒▒▒▒██▒▒▒██▒▒██████▓
▓██▒▒█▓▓███▒▒██▒██▒▒▒▒▒▒▒██▒▒▒██▒▒██▓███▓
▓▓██▒▒█▓ ▓███▒▒█▒██▒▒▒▒▒▒▒███████▒▒██▓▓▓▓▓
▓▓███▒▒█▓ ▓███▒▒▒███▒▒▒▒▒██▓▓▓▓██▒▒██▓
▓████▒▒█▓ ▓███▒▒█████████▓▓ ▓██▒▒██▓
▓████▒▒█▓ ▓███▒█▓██████▓▓▓ ▓██████▓
▓███████▓ ▓▓████▓▓▓▓▓▓▓▓ ▓▓▓▓▓▓▓▓
▓▓▓▓▓▓▓▓▓ ▓▓▓▓▓




******************************
* The Incredible Hulk (2008) *
******************************

________________________
General Information |
________________________|
_______________________________________________________________
Type : Movie |
Format : AVI |
Format/Info : Audio Video Interleave |
File size : 799Mb |
Duration : 1h 47mn |
Subtitles : None |
Source : Dvd PAL |
Genre : Action | Sci-Fi | Thriller |
IMDB Link : http://www.imdb.com/title/tt0800080/ |
Rating : 7.5/10 |
_______________________________________________________________|
________________________________________________________________
Video
Format : MPEG-4 Visual
Format profile : Streaming [email protected]
Format settings, BVOP : Yes
Format settings, QPel : No
Format settings, GMC : No warppoints
Format settings, Matrix : Default
Muxing mode : Packed bitstream
Codec ID : XVID
Codec ID/Hint : XviD
Duration : 1h 47mn
Bit rate : 900 Kbps
Width : 640 pixels
Height : 272 pixels
Display aspect ratio : 2.35
Frame rate : 25.000 fps
Resolution : 24 bits
Colorimetry : 4:2:0
Scan type : Progressive
Bits/(Pixel*Frame) : 0.207
Stream size : 693 MiB (87%)
_______________________________________________________________
Audio
Format : MPEG Audio
Format version : Version 1
Format profile : Layer 3
Codec ID : 55
Codec ID/Hint : MP3
Duration : 1h 47mn
Bit rate mode : Constant
Bit rate : 128 Kbps
Minimum bit rate : 128 Kbps
Channel(s) : 2 channels
Sampling rate : 48.0 KHz
Resolution : 16 bits
Stream size : 98.5 MiB (12%)
Alignment : Aligned on interleaves
Interleave, duration : 40 ms (1.00 video frame)
Interleave, preload duration : 504 ms
Writing library : LAME3.97
Encoding settings : CBR
_______________________________________________________________
________________
Description |
________________|
_______________________________________________________________
Depicting the events after the Gamma Bomb. \'The Incredible |
Hulk\' tells the story of Dr Bruce Banner, who seeks a cure |
to his unique condition, which causes him to turn into a giant |
green monster under emotional stress. Whilst on the run from |
military which seeks his capture, Banner comes close to a cure.|
But all is lost when a new creature emerges; The Abomination. |
_______________________________________________________________|
____________________
Playback Information|
____________________|
_______________________________________________________________
This Video Has Been Burn Tested And Will Work On ALL Stand |
Alone Players As Intended. Enjoy My Release. |
_______________________________________________________________|
___________________
Post Information |
___________________|
________________________________
Posted by............: Noir |
Posted on............: 9/15/2008|
________________________________|
[/code]
The Incredible Hulk (2008) DvdRip WS Xvid {1337x} Noir preview 5

The Incredible Hulk (2008) DvdRip WS Xvid {1337x} Noir preview 6

related torrents

Torrent name

health leech seeds Size
 


comments (0)

Main Menu