Comedy

G A Orgazmo DVDRip Xvid unrated special edition

  • Download 5x Faster
  • Download torrent
  • Direct Download
  • Rate this torrent +  |  -
G A Orgazmo DVDRip Xvid unrated special edition

Anonymous and Direct Download 300GB+ free


Torrent info

Name:G A Orgazmo DVDRip Xvid unrated special edition

Total Size: 701.27 MB

Magnet: Magnet Link

Seeds: 3

Leechers: 0

Stream: Watch Online @ Movie4u

Last Updated: 2010-09-16 12:25:15 (Update Now)

Torrent added: 2008-09-15 16:44:06




Torrent Files List


orgazmo.avi (Size: 701.27 MB) (Files: 1)

 orgazmo.avi

701.27 MB
 

Announce URL: http://guardian-angel.webhop.org/announce.php?passkey=

Torrent description

Orgazmo DVDRip.Unrated.Special.Edition

Orgazmo ist ein Film aus dem Jahre 1997, den die Schöpfer von South Park
und Team America: World Police Trey Parker und Matt Stone gedreht haben.

Die Komödie handelt vom tugendhaften Mormonen-Missionar Joe Young (Parker),
der dazu überredet wird, die Hauptrolle in einem Pornofilm zu spielen. Er
erklärt sich dazu bereit, um auf diese Weise genug Geld zu verdienen, um
seine Verlobte in einem Tempel zu heiraten.

Im Film-im-Film spielt er einen Superhelden namens Orgazmo, der zusammen
mit seinem Gehilfen Choda Boy Verbrechen bekämpft, indem er seine Fähigkeit
einsetzt, jedermann zu beliebiger Zeit zum Höhepunkt kommen zu lassen. Der
Film wird schnell zum Kassenschlager und der Produzent des Filmes versucht,
den Missionar auszubeuten. Der Mormone entscheidet sich mittels des
Orgazmorators aus dem Film, den Choda Boy in seiner Freizeit wirklich
erfunden hat, zurückzuschlagen und erhält tatsächlich die Kräfte, die die
Filmfigur bereits hatte. Diese Kräfte gebraucht er, um den korrupten
Filmemacher zu Fall zu bringen und sich mit seiner Verlobten wieder zu
vereinigen.


Format : AVI
Format/Info : Audio Video Interleave
Dateigre : 701 MiB
Duration : 1h 29min
Gesamte Bitrate : 1 092 Kbps
Verwendetes Programm : Nandub v1.0rc2
verwendete Encoder-Bibliothek : Nandub build 1852/release

Video
Format : MPEG-4 Visual
Format settings, BVOP : Ja
Format settings, QPel : Nein
Format settings, GMC : No warppoints
Format settings, Matrix : Default
Codec ID : XVID
Codec ID/Hint : XviD
Duration : 1h 29min
Bitrate : 961 Kbps
Breite : 576 Pixel
Höhe : 364 Pixel
Bildseitenverhältnis : 1.582
Bildwiederholungsrate : 25,000 FPS
Auflösung : 24 bits
Scan type : Progressive
Bits/(Pixel*Frame) : 0.183
Stream size : 617 MiB (88)

Audio
Format : MPEG Audio
Format version : Version 1
Format profile : Layer 3
Codec ID : 55
Codec ID/Hint : MP3
Duration : 1h 29min
Bitraten-Modus : Variable
Bitrate : 118 Kbps
Kanäle : 2 Kanäle
Samplingrate : 48,0 KHz
Auflösung : 16 bits
Stream size : 75,8 MiB (11)
Alignment : Aligned on interleaves
Interleave, duration : 24 ms (0,60 video frame)
Interleave, preload duration : 497 ms

related torrents

Torrent name

health leech seeds Size
 


comments (0)

Main Menu