Action

Constantine german avi mnvv2 ws

  • Download 5x Faster
  • Download torrent
  • Direct Download
  • Rate this torrent +  |  -
Constantine german avi mnvv2 ws

Anonymous and free Direct Download 300GB+


Torrent info

Name:Constantine german avi mnvv2 ws

Total Size: 1.36 GB

Magnet: Magnet Link

Seeds: 1

Leechers: 0

Stream: Watch Online @ Movie4u

Last Updated: 2010-11-19 23:34:41 (Update Now)

Torrent added: 2008-07-06 06:36:33



VPN For Torrents

Torrent Files List


Constantine.DVDrip.XviD.AC3.5.1.German.CD1.avi (Size: 1.36 GB) (Files: 5)

 Constantine.DVDrip.XviD.AC3.5.1.German.CD1.avi

696.52 MB

 Constantine.DVDrip.XviD.AC3.5.1.German.CD2.avi

699.39 MB

 Constantine.nfo

1.90 KB

 cover1.jpg

3.53 KB

 cover2.jpg

3.87 KB
 

Announce URL: http://mnvv2.ws/announce.php

Torrent description

please register at mnvv2.ws





General
Complete name : D:downloadsConstantineConstantine.DVDrip.XviD.AC3.5.1.German.CD1.avi
Format : AVI
Format/Info : Audio Video Interleave
File size : 697 MiB
Duration : 56mn 34s
Overal bit rate : 1721 Kbps
Writing application : VirtualDubMod 1.5.4.1 (build 2178/release)
Writing library : VirtualDubMod build 2178/release

Video
Format : MPEG-4 Visual
Format profile : Streaming [email protected]
Format settings, BVOP : Yes
Format settings, QPel : No
Format settings, GMC : No warppoints
Format settings, Matrix : Default
Codec ID : XVID
Codec ID/Hint : XviD
Duration : 56mn 34s
Bit rate : 1328 Kbps
Width : 672 pixels
Height : 272 pixels
Display aspect ratio : 2.471
Frame rate : 25.000 fps
Resolution : 8 bits
Colorimetry : 4:2:0
Scan type : Progressive
Bits/(Pixel*Frame) : 0.291
Stream size : 537 MiB
Writing library : XviD 1.0.3 (UTC 2004-12-20)

Audio
Format : AC-3
Format/Info : Audio Coding 3
Codec ID : 2000
Duration : 56mn 34s
Bit rate mode : Constant
Bit rate : 384 Kbps
Channel(s) : 6 channels
Channel positions : Front: L C R, Rear: L R, LFE
Sampling rate : 48.0 KHz
Video delay : 79ms
Stream size : 155 MiB

related torrents

Torrent name

health leech seeds Size
 


comments (0)

Main Menu