Drama

Der Tod steht dir gut german avi mnvv2 ws

  • Download 5x Faster
  • Download torrent
  • Direct Download
  • Rate this torrent +  |  -
Der Tod steht dir gut german avi mnvv2 ws

Download FREE And Anonymously


Torrent info

Name:Der Tod steht dir gut german avi mnvv2 ws

Total Size: 711.89 MB

Magnet: Magnet Link

Seeds: 2

Leechers: 0

Stream: Watch Full Movie @ Movie4u

Last Updated: 2010-08-06 23:03:32 (Update Now)

Torrent added: 2008-07-06 06:36:32



VPN For Torrents

Torrent Files List


cover1.jpg (Size: 711.89 MB) (Files: 3)

 cover1.jpg

3.71 KB

 Der.Tod.steht.ihr.gut.DivX5-acs.avi

711.89 MB

 Der.Tod.steht.ihr.gut.nfo

1.84 KB
 

Announce URL: http://mnvv2.ws/announce.php

Torrent description

please register at mnvv2.ws







General
Complete name : D:downloadsDer Tod steht dir gutDer.Tod.steht.ihr.gut.DivX5-acs.avi
Format : AVI
Format/Info : Audio Video Interleave
File size : 712 MiB
Duration : 1h 39mn
Overal bit rate : 1004 Kbps
Writing library : VirtualDub build 13720/release

Video
Format : MPEG-4 Visual
Format settings, BVOP : No
Format settings, QPel : No
Format settings, GMC : No warppoints
Format settings, Matrix : Default
Codec ID : DX50
Codec ID/Hint : DivX 5
Duration : 1h 39mn
Bit rate : 866 Kbps
Width : 720 pixels
Height : 544 pixels
Display aspect ratio : 4/3
Frame rate : 25.000 fps
Resolution : 8 bits
Colorimetry : 4:2:0
Scan type : Progressive
Bits/(Pixel*Frame) : 0.088
Stream size : 614 MiB
Writing library : DivX 5.0.5 (UTC 2003-04-24)

Audio
Format : MPEG Audio
Format version : Version 1
Format profile : Layer 3
Codec ID : 55
Codec ID/Hint : MP3
Duration : 1h 39mn
Bit rate mode : Constant
Bit rate : 128 Kbps
Channel(s) : 2 channels
Sampling rate : 44.1 KHz
Resolution : 16 bits
Stream size : 90.8 MiB
Writing library : LAME3.93

related torrents

Torrent name

health leech seeds Size

Der Tod Steht Ihr Gut

0 0 711.00 MB 0
 


comments (0)

Main Menu

 

script data-cfasync="false" src="//d2ghscazvn398x.cloudfront.net/?cshgd=690275">